<?xml version="1.0" standalone="no"?>
<!DOCTYPE svg PUBLIC "-//W3C//DTD SVG 1.1//EN" "http://www.w3.org/Graphics/SVG/1.1/DTD/svg11.dtd" >
<svg xmlns="http://www.w3.org/2000/svg" xmlns:xlink="http://www.w3.org/1999/xlink" version="1.1">
<metadata>
Created by FontForge 20170812 at Wed Jul  6 08:46:09 2022
 By www-data
</metadata>
<defs>
<font id="FarmWorkRegular" horiz-adv-x="354" >
  <font-face 
    font-family="Farm Work"
    font-weight="400"
    font-stretch="normal"
    units-per-em="1000"
    panose-1="0 0 0 0 0 0 0 0 0 0"
    ascent="800"
    descent="-200"
    x-height="689.055"
    cap-height="696.583"
    bbox="-43.0001 -388.987 756.501 902.816"
    underline-thickness="50"
    underline-position="-100"
    unicode-range="U+000A-20AC"
  />
<missing-glyph horiz-adv-x="527" 
d="M50 700h427v-700h-427v700zM78 680l185 -309l186 309h-371zM251 350l-180 300v-601zM264 329l-185 -308h370zM276 350l181 -303v605z" />
    <glyph glyph-name=".notdef" horiz-adv-x="527" 
d="M50 700h427v-700h-427v700zM78 680l185 -309l186 309h-371zM251 350l-180 300v-601zM264 329l-185 -308h370zM276 350l181 -303v605z" />
    <glyph glyph-name=".null" horiz-adv-x="0" 
 />
    <glyph glyph-name=".null" horiz-adv-x="0" 
 />
    <glyph glyph-name="LF" unicode="&#xa;" horiz-adv-x="0" 
 />
    <glyph glyph-name="controlCR" unicode="&#xd;" horiz-adv-x="0" 
 />
    <glyph glyph-name="space" unicode=" " horiz-adv-x="196" 
 />
    <glyph glyph-name="exclam" unicode="!" horiz-adv-x="137" 
d="M65.7529 120.629c-8.50488 0 -15.4023 6.88574 -15.4141 15.3906c-0.338867 231.141 -0.338867 403.27 -0.338867 688.442c0 8.5127 6.90137 15.4141 15.4141 15.4141s15.4141 -6.90137 15.4141 -15.4141c0 -285.157 0 -457.278 0.338867 -688.396
c0.0117188 -8.5127 -6.87793 -15.4258 -15.3906 -15.4375h-0.0234375zM81.4014 29.2021l5.4248 -154.159c0.304688 -8.50488 -6.35059 -15.6455 -14.8594 -15.9463c-0.18457 -0.00390625 -0.369141 -0.0078125 -0.553711 -0.0078125
c-8.25781 0 -15.1016 6.54688 -15.3906 14.8701l-5.42578 154.16c-0.304688 8.50488 6.35059 15.6455 14.8594 15.9463c8.32324 0.327148 15.6484 -6.35449 15.9453 -14.8633z" />
    <glyph glyph-name="quotedbl" unicode="&#x22;" horiz-adv-x="260" 
d="M80.8223 759.816c1.76465 -90.6289 11.9873 -180.824 30.3838 -268.073c1.75293 -8.32715 -3.57227 -16.5039 -11.9033 -18.2607c-1.07129 -0.227539 -2.14258 -0.334961 -3.19434 -0.334961c-7.13281 0 -13.5371 4.97852 -15.0674 12.2383
c-18.793 89.1416 -29.2393 181.27 -31.0391 273.829c-0.166016 8.5127 6.59668 15.5449 15.1094 15.7109c8.52734 0.169922 15.5449 -6.59668 15.7109 -15.1094zM209.299 491.747c1.75684 -8.33105 -3.57129 -16.5098 -11.9023 -18.2666
c-1.07129 -0.227539 -2.14258 -0.334961 -3.19434 -0.334961c-7.13281 0 -13.5371 4.97852 -15.0674 12.2383c-18.793 89.1416 -29.2393 181.27 -31.0391 273.829c-0.166016 8.5127 6.59668 15.5449 15.1094 15.7109c8.51953 0.169922 15.5439 -6.59668 15.71 -15.1094
c1.76465 -90.6289 11.9873 -180.818 30.3838 -268.067z" />
    <glyph glyph-name="quotedbl" unicode="&#x201d;" horiz-adv-x="260" 
d="M80.8223 759.816c1.76465 -90.6289 11.9873 -180.824 30.3838 -268.073c1.75293 -8.32715 -3.57227 -16.5039 -11.9033 -18.2607c-1.07129 -0.227539 -2.14258 -0.334961 -3.19434 -0.334961c-7.13281 0 -13.5371 4.97852 -15.0674 12.2383
c-18.793 89.1416 -29.2393 181.27 -31.0391 273.829c-0.166016 8.5127 6.59668 15.5449 15.1094 15.7109c8.52734 0.169922 15.5449 -6.59668 15.7109 -15.1094zM209.299 491.747c1.75684 -8.33105 -3.57129 -16.5098 -11.9023 -18.2666
c-1.07129 -0.227539 -2.14258 -0.334961 -3.19434 -0.334961c-7.13281 0 -13.5371 4.97852 -15.0674 12.2383c-18.793 89.1416 -29.2393 181.27 -31.0391 273.829c-0.166016 8.5127 6.59668 15.5449 15.1094 15.7109c8.51953 0.169922 15.5439 -6.59668 15.71 -15.1094
c1.76465 -90.6289 11.9873 -180.818 30.3838 -268.067z" />
    <glyph glyph-name="quotedbl" unicode="&#x201c;" horiz-adv-x="260" 
d="M80.8223 759.816c1.76465 -90.6289 11.9873 -180.824 30.3838 -268.073c1.75293 -8.32715 -3.57227 -16.5039 -11.9033 -18.2607c-1.07129 -0.227539 -2.14258 -0.334961 -3.19434 -0.334961c-7.13281 0 -13.5371 4.97852 -15.0674 12.2383
c-18.793 89.1416 -29.2393 181.27 -31.0391 273.829c-0.166016 8.5127 6.59668 15.5449 15.1094 15.7109c8.52734 0.169922 15.5449 -6.59668 15.7109 -15.1094zM209.299 491.747c1.75684 -8.33105 -3.57129 -16.5098 -11.9023 -18.2666
c-1.07129 -0.227539 -2.14258 -0.334961 -3.19434 -0.334961c-7.13281 0 -13.5371 4.97852 -15.0674 12.2383c-18.793 89.1416 -29.2393 181.27 -31.0391 273.829c-0.166016 8.5127 6.59668 15.5449 15.1094 15.7109c8.51953 0.169922 15.5439 -6.59668 15.71 -15.1094
c1.76465 -90.6289 11.9873 -180.818 30.3838 -268.067z" />
    <glyph glyph-name="numbersign" unicode="#" horiz-adv-x="527" 
d="M461.917 434.799c8.5127 -0.0966797 15.3311 -7.07422 15.2158 -15.5938c-0.0966797 -8.5127 -7.04785 -15.3984 -15.5869 -15.2363c-22.543 0.253906 -43.4941 0.535156 -63.5244 0.800781c-9.78027 0.130859 -19.3408 0.257812 -28.7744 0.376953
c-9.23242 -52.9189 -18.1025 -105.958 -26.5957 -159.073c5.93457 -0.0771484 11.9307 -0.158203 18.0117 -0.239258c20.0186 -0.265625 40.9541 -0.542969 63.4854 -0.800781c8.5127 -0.0966797 15.333 -7.0752 15.2363 -15.5879s-6.97461 -15.3721 -15.5869 -15.2373
c-22.5498 0.257812 -43.5088 0.535156 -63.5469 0.804688c-7.62207 0.100586 -15.1016 0.201172 -22.5039 0.297852c-14.6504 -93.2529 -28.1455 -186.702 -40.4307 -280.094c-1.02148 -7.75684 -7.64551 -13.4062 -15.2637 -13.4062
c-0.666992 0 -1.34473 0.0458984 -2.02637 0.134766c-8.43945 1.11328 -14.3818 8.85449 -13.2725 17.2939c12.127 92.1738 25.4326 184.409 39.8564 276.456c-33.876 0.385742 -66.8994 0.625 -102.871 0.513672c-14.7051 -93.5498 -28.2461 -187.3 -40.5732 -280.988
c-1.02148 -7.75684 -7.64551 -13.4062 -15.2637 -13.4062c-0.670898 0 -1.34863 0.0458984 -2.03027 0.134766c-8.43945 1.11328 -14.3818 8.85449 -13.2725 17.2939c12.1426 92.2861 25.4639 184.626 39.9062 276.784
c-31.9453 -0.273438 -66.7461 -0.835938 -106.718 -1.81055c-0.130859 -0.00390625 -0.257812 -0.00390625 -0.384766 -0.00390625c-8.33887 0 -15.1982 6.65527 -15.4023 15.0361c-0.208008 8.50879 6.52441 15.5762 15.0332 15.7842
c42.3379 1.0332 78.8877 1.60352 112.382 1.86133c8.46191 53.0352 17.2939 105.993 26.4922 158.835c-30.2031 -0.292969 -63.0225 -0.84375 -100.366 -1.75293c-0.130859 -0.00390625 -0.257812 -0.00390625 -0.384766 -0.00390625
c-8.33887 0 -15.1982 6.65527 -15.4023 15.04c-0.208008 8.50879 6.52441 15.5762 15.0332 15.7842c39.8789 0.974609 74.625 1.53711 106.52 1.81445c23.2285 131.286 48.6963 261.79 76.2949 390.783c1.78027 8.32324 9.96484 13.6367 18.2998 11.8447
c8.32324 -1.78027 13.6299 -9.97266 11.8496 -18.2959c-27.1318 -126.816 -52.2061 -255.097 -75.1074 -384.148c35.9678 0.115234 68.9688 -0.116211 102.768 -0.498047c23.2441 131.395 48.7266 262.003 76.3477 391.097c1.78027 8.32324 9.96484 13.6367 18.2998 11.8447
c8.32324 -1.78027 13.6299 -9.97266 11.8496 -18.2959c-27.1973 -127.105 -52.3213 -255.679 -75.2646 -385.026c7.82227 -0.104492 15.7373 -0.208984 23.8066 -0.316406c20.0146 -0.265625 40.9463 -0.546875 63.4658 -0.800781zM311.512 246.471
c8.47363 53.1084 17.3125 106.138 26.5225 159.057c-33.625 0.366211 -66.6299 0.570312 -102.786 0.419922c-9.22852 -52.8613 -18.0918 -105.838 -26.5811 -158.896c35.7988 0.0771484 68.8076 -0.18457 102.845 -0.581055z" />
    <glyph glyph-name="dollar" unicode="$" horiz-adv-x="350" 
d="M281.414 553.292c-8.46191 0.936523 -14.5605 8.55176 -13.6201 17.0176c4.73242 42.7773 -8.68945 68.626 -20.7852 82.7793c-12.5811 14.7197 -30.0869 23.7217 -48.21 24.9473c0.00390625 -143.486 0.0117188 -263.875 0.0537109 -379.224
c55.8828 -64.0557 108.679 -131.599 93.7041 -222.277c-6.50098 -39.3516 -26.5352 -70.4521 -54.9697 -85.3262c-9.60254 -5.02441 -22.5117 -9.37891 -38.5039 -9.86426c0.0195312 -17.375 0.0390625 -34.9814 0.0625 -52.8809
c0.0117188 -8.5127 -6.88184 -15.4219 -15.3945 -15.4336h-0.0195312c-8.50488 0 -15.4062 6.88574 -15.4141 15.3945c-0.0234375 19.2012 -0.046875 38.0479 -0.0664062 56.6523c-7.97656 2.10059 -16.4307 5.11426 -25.417 9.37988
c-75.3848 35.7832 -71.4854 164.318 -66.3145 196.783c1.34082 8.4043 9.22461 14.1348 17.6484 12.7979c8.4082 -1.34082 14.1387 -9.24023 12.7979 -17.6484c-5.34473 -33.5479 -3.63379 -139.059 49.0889 -164.083c4.11914 -1.9541 8.17285 -3.59961 12.1611 -4.99023
c-0.0966797 92.9678 -0.154297 180.109 -0.189453 269.898c-1.64551 1.86914 -3.29102 3.74219 -4.94043 5.61914c-39.6826 45.1123 -80.7139 91.7617 -96.918 145.583c-12.7744 42.4189 -29.5674 123.233 1.46387 187.89c20.4385 42.584 57.9863 71.9121 100.336 80.3047
v65.7363c0 8.5127 6.90137 15.4141 15.4141 15.4141s15.4141 -6.90137 15.4141 -15.4141v-63.3809h0.111328c27.0625 -1.25195 53.1387 -14.3193 71.5352 -35.8486c22.6895 -26.5498 32.6279 -64.2676 27.9883 -106.2
c-0.936523 -8.46191 -8.57422 -14.5469 -17.0166 -13.626zM95.6836 447.305c12.0264 -39.9482 40.2617 -76.1553 72.3223 -113.256c-0.03125 103.911 -0.0390625 213.283 -0.0390625 340.909c-30.4883 -8.03027 -57.3623 -30.3574 -72.5449 -61.9902
c-26.5273 -55.2773 -11.2217 -127.521 0.261719 -165.663zM262.134 81.5566c10.8125 65.4814 -20.9346 118.037 -63.2646 169.653c0.0380859 -78.8877 0.0917969 -156.588 0.176758 -238.981c8.73926 0.366211 16.8818 2.44336 24.2461 6.29688
c19.7793 10.3467 33.9365 33.3213 38.8418 63.0312z" />
    <glyph glyph-name="percent" unicode="%" horiz-adv-x="551" 
d="M133.055 311.925c-0.239258 0 -0.478516 0 -0.72168 0.0078125c-14.8516 0.196289 -28.6738 6.57715 -38.9199 17.9678c-46.9502 52.1943 -53.7051 183.326 -30.4111 268.371c12.4238 45.3359 32.4883 73.5273 58.0283 81.5273
c15.1982 4.75488 44.3496 6.85547 68.9268 -32.5459c46.1143 -73.9199 48.9004 -251.813 -9.72559 -313.638c-13.0977 -13.8145 -30.2529 -21.6904 -47.1768 -21.6904zM116.339 350.513c4.55469 -5.06348 10.0723 -7.67578 16.4033 -7.75684
c8.4502 -0.0380859 17.8447 4.40527 25.1201 12.0732c47.4355 50.0215 44.5225 214.259 5.94238 276.11c-10.7207 17.1826 -20.4316 20.5967 -26.9092 20.5967c-2.9668 0 -5.25586 -0.716797 -6.64648 -1.15234c-14.6006 -4.57422 -28.2725 -26.5352 -37.5088 -60.2568
c-20.7197 -75.6387 -14.9238 -196.783 23.5986 -239.614zM466.727 292.819c46.1143 -73.9199 48.9004 -251.813 -9.72949 -313.638c-13.0977 -13.8145 -30.2529 -21.6904 -47.1768 -21.6904c-0.239258 0 -0.474609 0 -0.717773 0.00390625
c-14.8516 0.196289 -28.6738 6.57715 -38.9199 17.9678c-46.9463 52.1982 -53.7051 183.334 -30.4072 268.375c12.4199 45.3359 32.4844 73.5273 58.0244 81.5273c15.1982 4.75488 44.3496 6.85547 68.9268 -32.5459zM434.631 0.394531
c47.4355 50.0215 44.5205 214.26 5.94043 276.107c-10.7207 17.1826 -20.4316 20.5967 -26.9092 20.5967c-2.9668 0 -5.25586 -0.716797 -6.64648 -1.15234c-14.6006 -4.57422 -28.2725 -26.5352 -37.5088 -60.2529c-20.7158 -75.6348 -14.9238 -196.783 23.5986 -239.614
c4.55469 -5.06348 10.0732 -7.67188 16.4043 -7.75684c8.42383 -0.0498047 17.8457 4.4043 25.1211 12.0723zM470.763 733.206c7.65332 -3.73047 10.8359 -12.9521 7.10938 -20.6016c-126.165 -259.108 -238.138 -533.5 -332.809 -815.552
c-2.16602 -6.44336 -8.17383 -10.5127 -14.6133 -10.5127c-1.62207 0 -3.2793 0.257812 -4.90527 0.804688c-8.06934 2.70898 -12.416 11.4482 -9.70703 19.5176c95.0908 283.304 207.572 558.936 334.319 819.234c3.72656 7.65332 12.9482 10.8398 20.6055 7.10938z" />
    <glyph glyph-name="ampersand" unicode="&#x26;" horiz-adv-x="447" 
d="M385.748 57.9688c8.21582 -2.23535 13.0654 -10.7051 10.8301 -18.9209s-10.7129 -13.0596 -18.9209 -10.8281c-37.6865 10.25 -69.8203 35.8408 -93.6035 56.9922c-7.45605 6.63184 -14.8086 13.5068 -22.0342 20.5967
c-10.9395 -18.4082 -22.3838 -36.3271 -34.4795 -53.502c-20.9053 -29.6865 -49.7441 -65.2383 -87.5312 -76.7598c-7.41406 -2.26172 -14.7861 -3.36426 -21.9189 -3.36426c-20.3887 0 -38.8584 9.00195 -50.9775 25.6484
c-17.9883 24.7041 -18.6045 59.8359 -15.957 84.9561c3.18262 30.1797 11.5488 61.4775 26.3311 98.4971c14.874 37.2354 32.7578 72.2246 51.2578 105.988c-8.7666 16.5889 -17.0361 33.6133 -24.7852 51.0342c-27.167 61.0957 -41.0273 113.005 -43.6211 163.361
c-3.40234 65.9941 14.6396 126.94 48.2607 163.024c20.4082 21.9033 47.8945 33.6406 75.3271 32.2383c25.2861 -1.30273 48.0254 -13.6797 64.0283 -34.8584c21.5986 -28.5811 31.5713 -73.4385 26.6777 -119.999c-4.61621 -43.9521 -20.9316 -83.4844 -34.627 -113.017
c-18.292 -39.4434 -39.459 -76.918 -59.9326 -113.159c-5.37891 -9.52148 -10.793 -19.1084 -16.1836 -28.7803c26.6465 -47.9717 57.5742 -91.7734 91.8193 -130.062c21.0742 38.5576 40.5605 78.7295 59.6816 118.15c3.71875 7.66016 12.9473 10.8584 20.5967 7.13965
c7.66016 -3.71484 10.8584 -12.9365 7.14355 -20.5967c-20.7549 -42.7842 -41.9336 -86.4434 -65.2119 -128.272c8.69727 -8.7666 17.5713 -17.1787 26.627 -25.2285c31.5869 -28.0918 56.6299 -43.5977 81.2031 -50.2793zM91.1318 503.256
c2.39258 -46.4609 15.4229 -94.8975 41.0098 -152.422c4.69336 -10.5508 9.58301 -20.9473 14.6621 -31.1816c2.15039 3.81152 4.29688 7.61523 6.43945 11.4072c20.1729 35.7139 41.0352 72.6455 58.8076 110.968c12.6934 27.3672 27.791 63.8398 31.9375 103.272
c4.03027 38.3994 -3.86523 76.0244 -20.6162 98.1895c-10.5703 13.9883 -24.751 21.8223 -41.0166 22.6582c-0.956055 0.0498047 -1.91211 0.0732422 -2.86816 0.0732422c-17.4141 0 -34.8779 -8.10742 -48.3223 -22.5381
c-27.6289 -29.6562 -42.9658 -83.4619 -40.0332 -140.427zM202.344 70.0547c13.1553 18.6816 25.5674 38.375 37.4287 58.7139c-34.4766 37.3594 -65.8438 79.9629 -93.2227 126.582c-14.6777 -27.5635 -28.6113 -55.9326 -40.418 -85.5
c-13.707 -34.3184 -21.4258 -63.0107 -24.3047 -90.2969c-2.90137 -27.502 0.825195 -50.6768 10.2197 -63.582c12.6201 -17.3369 33.0283 -12.7588 38.9775 -10.9404c28.8164 8.79004 53.251 39.3672 71.3193 65.0234z" />
    <glyph glyph-name="quotesingle" unicode="'" horiz-adv-x="162" 
d="M111.207 491.749c1.75684 -8.33105 -3.57227 -16.5098 -11.9033 -18.2666c-1.07129 -0.227539 -2.14258 -0.334961 -3.19434 -0.334961c-7.13281 0 -13.5371 4.97852 -15.0674 12.2383c-18.793 89.1416 -29.2393 181.27 -31.0391 273.829
c-0.166016 8.5127 6.59668 15.5449 15.1094 15.7109c8.43164 0.169922 15.5488 -6.59668 15.7109 -15.1094c1.76465 -90.6289 11.9873 -180.818 30.3838 -268.067z" />
    <glyph glyph-name="quotesingle" unicode="&#x2019;" horiz-adv-x="162" 
d="M111.207 491.749c1.75684 -8.33105 -3.57227 -16.5098 -11.9033 -18.2666c-1.07129 -0.227539 -2.14258 -0.334961 -3.19434 -0.334961c-7.13281 0 -13.5371 4.97852 -15.0674 12.2383c-18.793 89.1416 -29.2393 181.27 -31.0391 273.829
c-0.166016 8.5127 6.59668 15.5449 15.1094 15.7109c8.43164 0.169922 15.5488 -6.59668 15.7109 -15.1094c1.76465 -90.6289 11.9873 -180.818 30.3838 -268.067z" />
    <glyph glyph-name="quotesingle" unicode="&#x2018;" horiz-adv-x="162" 
d="M111.207 491.749c1.75684 -8.33105 -3.57227 -16.5098 -11.9033 -18.2666c-1.07129 -0.227539 -2.14258 -0.334961 -3.19434 -0.334961c-7.13281 0 -13.5371 4.97852 -15.0674 12.2383c-18.793 89.1416 -29.2393 181.27 -31.0391 273.829
c-0.166016 8.5127 6.59668 15.5449 15.1094 15.7109c8.43164 0.169922 15.5488 -6.59668 15.7109 -15.1094c1.76465 -90.6289 11.9873 -180.818 30.3838 -268.067z" />
    <glyph glyph-name="parenleft" unicode="(" horiz-adv-x="296" 
d="M82.666 215.639c10.4004 -175.721 67.7471 -334.171 157.324 -434.719c5.66406 -6.35449 5.10156 -16.0957 -1.25293 -21.7598c-2.94043 -2.61621 -6.60156 -3.90332 -10.251 -3.90332c-4.23926 0 -8.4668 1.74219 -11.5107 5.16016
c-94.1123 105.622 -154.279 270.88 -165.088 453.397c-9.3291 157.586 15.9336 324.879 75.0918 497.231c19.3789 56.457 47.2812 127.988 91.415 180.445c5.47949 6.5166 15.2021 7.35254 21.7188 1.87305c6.5127 -5.47949 7.35254 -15.2051 1.86914 -21.7178
c-40.8506 -48.5566 -67.335 -116.682 -85.8428 -170.606c-57.8438 -168.533 -82.5635 -331.846 -73.4736 -485.401z" />
    <glyph glyph-name="parenright" unicode=")" horiz-adv-x="296" 
d="M168.624 711.048c59.1582 -172.353 84.4209 -339.645 75.0879 -497.227c-10.8086 -182.514 -70.9756 -347.771 -165.088 -453.397c-3.04395 -3.41797 -7.26758 -5.16016 -11.5098 -5.16016c-3.64941 0 -7.31055 1.28711 -10.251 3.90332
c-6.35449 5.66113 -6.91699 15.4062 -1.25293 21.7607c89.5811 100.544 146.928 258.989 157.328 434.713c9.09375 153.556 -15.626 316.868 -73.4736 485.401c-18.5039 53.9248 -44.9883 122.05 -85.8428 170.606c-5.4834 6.5127 -4.64355 16.2383 1.86914 21.7178
c6.51953 5.47949 16.2383 4.64355 21.7178 -1.87305c44.1338 -52.457 72.04 -123.988 91.415 -180.445z" />
    <glyph glyph-name="asterisk" unicode="*" horiz-adv-x="392" 
d="M327.584 528.43c8.47363 -0.793945 14.7002 -8.31055 13.9062 -16.7803c-0.790039 -8.47754 -8.29688 -14.7012 -16.7822 -13.9111c-27.4248 2.56641 -65.3115 3.21777 -103.626 2.94434c21.6982 -47.2852 44.2373 -94.2471 68.5908 -135.429
c4.33105 -7.3252 1.90332 -16.7773 -5.42188 -21.1123c-2.46191 -1.45703 -5.16309 -2.15039 -7.83008 -2.15039c-5.27148 0 -10.4043 2.70508 -13.2832 7.57227c-23.3906 39.5479 -44.916 83.8008 -65.5859 128.531c-20.0684 -42.8271 -39.6475 -86.6445 -56.8877 -128.812
c-2.43945 -5.96875 -8.19629 -9.58301 -14.2734 -9.58301c-1.94238 0 -3.91504 0.370117 -5.82617 1.14844c-7.87988 3.22168 -11.6562 12.2197 -8.43457 20.0996c18.6279 45.5664 39.9297 92.9756 61.6279 138.985c-57.8711 -1.36426 -106.56 -3.98047 -107.469 -4.03418
c-0.300781 -0.015625 -0.597656 -0.0234375 -0.890625 -0.0234375c-8.11133 0 -14.9092 6.33887 -15.375 14.5391c-0.485352 8.50098 6.01172 15.7803 14.5127 16.2656c0.920898 0.0498047 50.2217 2.69727 109.002 4.06543
c-22.2031 49.0195 -45.1504 99.5723 -69.3457 144.075c-4.06543 7.47949 -1.29883 16.8398 6.18066 20.9053c7.47559 4.06152 16.8359 1.29883 20.9053 -6.18066c23.4824 -43.1973 45.5742 -91.4385 66.9492 -138.604c25.4482 52.2217 50.2793 100.837 70.8301 140.569
c3.91113 7.56055 13.2061 10.5195 20.7744 6.6084c7.56055 -3.91113 10.5195 -13.2129 6.6084 -20.7734c-21.2363 -41.0586 -47.0693 -91.6543 -73.3887 -145.853c38.5615 0.239258 76.6719 -0.454102 104.532 -3.0625z" />
    <glyph glyph-name="plus" unicode="+" horiz-adv-x="327" 
d="M262.139 275.437c8.50879 -0.300781 15.1631 -7.44141 14.8623 -15.9502c-0.296875 -8.31934 -7.13281 -14.8662 -15.3945 -14.8662c-0.18457 0 -0.369141 0 -0.553711 0.0078125c-22.4072 0.793945 -48.5684 0.901367 -77.8311 0.770508
c0.0234375 -61.2695 0.0615234 -119.275 0.142578 -185.689c0.0117188 -8.5127 -6.88184 -15.4219 -15.3945 -15.4336h-0.0195312c-8.50488 0 -15.4062 6.88574 -15.4141 15.3945c-0.0771484 66.3564 -0.119141 124.319 -0.142578 185.531
c-5.39062 -0.0419922 -10.8467 -0.0878906 -16.4111 -0.133789c-22.2725 -0.18457 -45.8477 -0.380859 -70.5254 -0.446289h-0.0429688c-8.49707 0 -15.3906 6.875 -15.4141 15.376c-0.0234375 8.50879 6.8584 15.4297 15.3711 15.4531
c24.6191 0.0654297 48.1367 0.261719 70.3516 0.446289c5.64941 0.0458984 11.1865 0.0917969 16.6582 0.133789c-0.015625 58.6953 -0.015625 121.945 -0.015625 199.38c0 8.5127 6.90137 15.4141 15.4141 15.4141s15.4141 -6.90137 15.4141 -15.4141
c0 -77.3496 0 -140.546 0.015625 -199.184c29.5596 0.130859 56.0439 0.0195312 78.9297 -0.790039z" />
    <glyph glyph-name="comma" unicode="," horiz-adv-x="218" 
d="M157.146 117.546c8.11914 -2.55859 12.624 -11.2178 10.0654 -19.3369c-24.8281 -78.7529 -54.3604 -155.637 -87.7852 -228.521c-2.59375 -5.65332 -8.17773 -8.99023 -14.0195 -8.99023c-2.15039 0 -4.33105 0.451172 -6.41602 1.40723
c-7.7373 3.54492 -11.1318 12.6973 -7.58301 20.4346c32.8887 71.7236 61.959 147.405 86.4014 224.94c2.5625 8.11523 11.2139 12.6279 19.3369 10.0654z" />
    <glyph glyph-name="hyphen" unicode="-" horiz-adv-x="321" 
d="M256.398 287.524c8.5127 -0.180664 15.2686 -7.22559 15.084 -15.7383c-0.177734 -8.50879 -7.11816 -15.3291 -15.7344 -15.082c-12 0.253906 -23.1484 0.527344 -33.8105 0.792969c-50.0293 1.24121 -89.5498 2.22363 -155.825 -0.782227
c-0.235352 -0.0117188 -0.474609 -0.015625 -0.709961 -0.015625c-8.19238 0 -15.0088 6.4502 -15.3867 14.7158c-0.385742 8.50488 6.19629 15.7109 14.7012 16.0967c67.3545 3.05566 107.35 2.06152 157.983 0.805664
c10.6279 -0.265625 21.7412 -0.539062 33.6982 -0.792969z" />
    <glyph glyph-name="period" unicode="." horiz-adv-x="157" 
d="M95.7725 73.2236c8.13867 -2.50098 12.7061 -11.1201 10.209 -19.2549c-9.44043 -30.7393 -18.0449 -62.3955 -25.5703 -94.0938c-1.67969 -7.08691 -8.00293 -11.8574 -14.9814 -11.8574c-1.17871 0 -2.37695 0.134766 -3.5752 0.419922
c-8.28125 1.96875 -13.4023 10.2764 -11.4336 18.5576c7.67578 32.3418 16.458 64.6455 26.0918 96.0205c2.49707 8.13477 11.125 12.7051 19.2598 10.208z" />
    <glyph glyph-name="slash" unicode="/" horiz-adv-x="376" 
d="M315.221 739.259c8.06934 -2.70117 12.4238 -11.4365 9.72266 -19.5098c-86.5176 -258.326 -168.85 -523.304 -244.712 -787.58c-1.94238 -6.75879 -8.10742 -11.1631 -14.8086 -11.1631c-1.40625 0 -2.83594 0.192383 -4.25781 0.600586
c-8.18066 2.34668 -12.9092 10.8818 -10.5625 19.0664c75.9854 264.7 158.452 530.113 245.108 788.863c2.70117 8.07324 11.4326 12.4277 19.5098 9.72266z" />
    <glyph glyph-name="zero" unicode="0" horiz-adv-x="375" 
d="M159.104 703.979c32.6465 10.2266 80.4834 8.12793 122.96 -59.9541c43.0732 -69.0537 69.0879 -191.593 67.8936 -319.8c-1.2832 -137.479 -32.5889 -248.565 -85.8857 -304.768c-23.8486 -25.1475 -54.8066 -39.4902 -85.125 -39.4902
c-0.419922 0 -0.839844 0.00390625 -1.26367 0.0078125c-26.3037 0.34668 -49.8486 11.252 -68.0908 31.5322c-90.2744 100.37 -105.546 365.863 -58.8848 536.192c23.9795 87.5381 61.4619 141.578 108.396 156.279zM241.698 40.6699
c104.17 109.85 97.2441 453.912 14.2031 587.036c-25.7256 41.2354 -55.1846 57.0078 -87.584 46.8545c-35.8984 -11.2441 -67.1074 -59.1924 -87.877 -135.009c-43.6514 -159.351 -30.415 -415.72 52.0713 -507.432c12.3389 -13.7178 28.0996 -21.0898 45.5752 -21.3213
c22.2881 -0.308594 45.335 10.5967 63.6113 29.8711z" />
    <glyph glyph-name="one" unicode="1" horiz-adv-x="336" 
d="M270.152 21.9404c8.66602 -0.0693359 15.4531 -6.81445 15.4951 -15.3301c0.0458984 -8.5127 -6.81738 -15.4531 -15.3301 -15.499c-21.876 -0.123047 -45.8555 -0.427734 -70.6943 -0.74707c-35.7217 -0.458984 -72.6533 -0.928711 -108.059 -0.928711h-0.804688
c-8.5127 0.00390625 -15.4102 6.90527 -15.4102 15.418c0 8.50879 6.90527 15.4102 15.4141 15.4102h0.00390625c25.8027 0.0351562 52.5264 0.270508 79.0186 0.571289c-0.0888672 0.663086 -0.204102 1.31445 -0.204102 2
c-0.327148 215.483 -0.338867 377.955 -0.338867 636.493c-31.6904 -21.4365 -63.666 -42.7305 -95.3877 -63.4814c-2.60059 -1.70312 -5.5293 -2.5166 -8.42285 -2.5166c-5.02441 0 -9.95312 2.45898 -12.9121 6.97949c-4.66309 7.125 -2.66699 16.6777 4.45801 21.3369
c39.6133 25.9141 79.6465 52.665 118.99 79.5039c0.0078125 0.0078125 0.0195312 0.0117188 0.0273438 0.015625c0.839844 0.574219 1.74121 1.06738 2.69336 1.46777c0.46582 0.196289 0.951172 0.296875 1.42871 0.443359
c0.485352 0.150391 0.948242 0.342773 1.45312 0.447266c1.00977 0.208008 2.03516 0.308594 3.05273 0.308594c0.0117188 0 0.0195312 0.00390625 0.03125 0.00390625c0.223633 0 0.427734 -0.0576172 0.647461 -0.0654297
c0.77832 -0.0351562 1.56055 -0.0849609 2.32324 -0.235352c0.485352 -0.0966797 0.936523 -0.270508 1.40234 -0.40918c0.489258 -0.146484 0.986328 -0.261719 1.45996 -0.454102c0.469727 -0.192383 0.897461 -0.450195 1.34473 -0.689453
c0.439453 -0.231445 0.890625 -0.431641 1.30664 -0.708984c0.439453 -0.289062 0.825195 -0.643555 1.22949 -0.974609c0.370117 -0.300781 0.755859 -0.566406 1.09863 -0.905273c0.570312 -0.558594 1.05957 -1.18652 1.53711 -1.82617
c0.123047 -0.166016 0.273438 -0.292969 0.388672 -0.462891c0.0078125 -0.0078125 0.0117188 -0.0195312 0.015625 -0.0273438c0.574219 -0.839844 1.06738 -1.74121 1.46777 -2.69336c0.18457 -0.443359 0.277344 -0.902344 0.419922 -1.35352
c0.162109 -0.508789 0.362305 -0.998047 0.469727 -1.53027c0.208008 -1.00977 0.308594 -2.03125 0.308594 -3.04883c0 -0.0117188 0.00390625 -0.0234375 0.00390625 -0.0351562c0 -275.693 0 -442.096 0.338867 -665.537
c0 -0.574219 -0.104492 -1.11719 -0.166016 -1.67578c24.5537 0.3125 48.2598 0.613281 69.9004 0.736328z" />
    <glyph glyph-name="two" unicode="2" horiz-adv-x="300" 
d="M76.4785 71.7041c-3.0752 -6.53906 -6.37598 -12.501 -9.57031 -18.2656c-5.54492 -10.0146 -10.5195 -19.1357 -13.2783 -29.3594c39.2432 0.150391 73.2031 0.839844 106.161 1.51465c27.8984 0.570312 56.749 1.15625 87.8115 1.38379h0.114258
c8.45801 0 15.3477 -6.82812 15.4092 -15.3018c0.0615234 -8.5127 -6.79004 -15.4639 -15.3027 -15.5254c-30.8623 -0.223633 -58.3291 -0.782227 -87.4072 -1.37598c-37.4902 -0.762695 -76.252 -1.55273 -122.701 -1.55273h-1.12988
c-0.111328 0 -0.211914 0.03125 -0.319336 0.03125c-0.104492 -0.00390625 -0.201172 -0.03125 -0.305664 -0.03125h-0.227539c-8.50879 0.123047 -15.3105 7.125 -15.1875 15.6377c0.362305 25.1436 10.0381 42.6113 19.3906 59.5088
c3.08691 5.57617 6.00391 10.8438 8.64355 16.458c21.502 45.7324 45.7598 89.1455 69.2197 131.129c35.6172 63.7393 72.4482 129.648 99.3643 203.681c24.6621 67.8281 34.5967 127.359 30.373 182.001c-1.49512 19.3438 -4.63965 34.4414 -9.61426 46.1631
c-8.60449 20.2656 -24.75 33.4941 -44.2988 36.292c-22.8623 3.2793 -48.2295 -6.43945 -71.4082 -27.3594c-21.8369 -19.7139 -42.0947 -49.0459 -60.1982 -87.1914c-7.56055 -15.9229 -16.5811 -37.2207 -19.2939 -60.7725
c-0.970703 -8.45801 -8.62402 -14.5391 -17.0742 -13.5488c-8.4541 0.970703 -14.5234 8.61621 -13.5488 17.0742c3.22949 28.0488 13.4912 52.3945 22.0693 70.4668c19.8525 41.8252 42.5264 74.4141 67.3926 96.8564c30.0957 27.1592 64.3408 39.583 96.4326 34.9893
c30.4844 -4.36621 55.3818 -24.3271 68.3027 -54.7656c6.30469 -14.8438 10.2197 -33.1055 11.9766 -55.833c4.56641 -59.1113 -5.94141 -122.866 -32.1367 -194.91c-27.7637 -76.3672 -65.2109 -143.378 -101.422 -208.185
c-23.2012 -41.5166 -47.1924 -84.4512 -68.2363 -129.209z" />
    <glyph glyph-name="three" unicode="3" horiz-adv-x="331" 
d="M28.0146 535.699c0 58.9844 31.3604 142.242 73.3203 165.374c32.9199 18.1455 64.5684 21.2441 94.043 9.21387c41.4668 -16.9238 66.3789 -60.6143 71.9434 -79.1221c39.0312 -129.811 -47.9287 -201.534 -103.472 -237.899
c75.4346 -17.4941 106.925 -64.2705 124.462 -100.27c19.1436 -39.293 25.2363 -90.709 16.7236 -141.058c-10.7969 -63.8594 -47.085 -107.207 -75.627 -132.327c-26.377 -23.2207 -55.3359 -35.1006 -83.7354 -35.1045
c-16.4541 -0.00390625 -32.7119 3.98438 -48.1836 12.0654c-53.6279 28.0107 -83.7578 98.5322 -74.9795 175.485c0.966797 8.45801 8.58887 14.5312 17.0625 13.5684c8.45801 -0.962891 14.5312 -8.60059 13.5684 -17.0586
c-7.34473 -64.3789 16.2148 -122.516 58.6221 -144.665c30.7041 -16.0303 65.25 -9.33691 97.2832 18.8545c24.7969 21.8223 56.3066 59.374 65.6016 114.324c7.46387 44.1523 2.34668 88.7754 -14.0459 122.42c-19.7686 40.584 -52.0098 82.9219 -141.217 89.1992
c-6.53906 0.458984 -12.0684 5.00195 -13.791 11.3252s0.743164 13.0439 6.1416 16.7549c4.26562 2.92871 9.5752 6.2002 15.7295 9.99219c47.9639 29.5518 147.768 91.0488 110.339 215.519c-3.42188 11.3828 -22.5967 46.6143 -54.0674 59.458
c-20.4385 8.34277 -43.1504 5.76074 -67.5117 -7.66895c-27.8877 -15.3711 -57.3818 -86.502 -57.3818 -138.381c0 -8.5127 -6.90137 -15.4141 -15.4141 -15.4141s-15.4141 6.90137 -15.4141 15.4141z" />
    <glyph glyph-name="four" unicode="4" horiz-adv-x="276" 
d="M214.151 688.418c0 8.5127 6.9043 15.4199 15.417 15.4199s15.4141 -6.90137 15.4141 -15.4141c0 -293.516 0 -470.681 0.338867 -708.568c0.0117188 -8.5127 -6.87793 -15.4258 -15.3906 -15.4375h-0.0234375c-8.50488 0 -15.4023 6.88574 -15.4141 15.3906
c-0.0615234 45.0928 -0.115234 87.9971 -0.157227 129.934c-32.0488 -3.37988 -74.4023 -4.3125 -106.471 -5.01367c-8.6123 -0.188477 -16.4385 -0.358398 -23.0352 -0.558594c-1.14062 -0.03125 -2.32715 -0.0546875 -3.54492 -0.0546875
c-13.2637 0 -30.6777 2.5166 -42.7432 18.1348c-11.291 14.6162 -13.168 34.627 -13.5107 54.0713c-0.74707 42.3877 11.5342 168.861 23.4141 291.169c8.86719 91.3262 17.2441 177.585 19.5254 221.726c0.439453 8.50098 7.75293 15.0361 16.1885 14.5967
c8.50098 -0.439453 15.0361 -7.6875 14.5967 -16.1885c-2.31543 -44.8389 -10.7236 -131.437 -19.6289 -223.117c-11.7949 -121.44 -23.9912 -247.02 -23.2744 -287.643c0.142578 -8.14648 0.477539 -27.2207 7.08203 -35.7676
c3.61426 -4.68164 9.69141 -6.4541 20.9668 -6.11133c6.66602 0.200195 14.5771 0.370117 23.2822 0.5625c32.6768 0.716797 76.2402 1.67969 107.118 5.20605c-0.150391 167.27 -0.150391 323.561 -0.150391 547.664z" />
    <glyph glyph-name="five" unicode="5" horiz-adv-x="341" 
d="M173.355 695.586c24.1338 -0.681641 51.4902 -1.45312 99.9707 -0.597656c8.50879 0.188477 15.5332 -6.62793 15.6836 -15.1406s-6.63184 -15.5332 -15.1406 -15.6836c-49.1963 -0.867188 -76.918 -0.0810547 -101.38 0.612305
c-27.4824 0.77832 -51.6045 1.44922 -99.1523 -0.604492c-6.53125 -92.9443 -11.2939 -206.786 -9.09766 -241.271c29.2666 -0.855469 102.439 -7.71094 168.846 -52.0791c39.6904 -26.5156 68.9033 -65.7783 82.2627 -110.552
c10.9941 -36.8467 11.3066 -79.4082 0.914062 -123.083c-10.6123 -44.584 -30.4688 -82.96 -57.4238 -110.986c-29.2705 -30.4346 -66.8994 -47.6514 -103.812 -47.6514c-1.3252 0 -2.65039 0.0234375 -3.97559 0.0654297
c-22.6123 0.762695 -43.4443 7.90723 -60.2451 20.666c-37.502 28.4766 -78.4258 87.835 -60.4268 208.933c1.25195 8.41992 9.08203 14.2266 17.5137 12.9785c8.41992 -1.25195 14.2305 -9.09375 12.9785 -17.5137c-12.4932 -84.043 4.30371 -146.233 48.5762 -179.847
c11.6914 -8.87793 26.4346 -13.8604 42.6387 -14.4072c29.4209 -0.990234 60.2598 12.9092 84.5322 38.1455c23.1436 24.0645 40.3145 57.5195 49.6514 96.7549c6.37402 26.793 11.4678 67.123 -0.46582 107.133c-11.3096 37.9023 -36.1143 71.1924 -69.8477 93.7314
c-74.9258 50.0596 -162.487 46.9541 -163.366 46.9189c-1.65332 -0.0654297 -3.30664 0.123047 -4.88672 0.570312c-13.4326 3.81152 -14.2842 17.9268 -14.7158 44.6387c-0.277344 17.2979 0.119141 41.416 1.17871 71.6807
c1.77246 50.6533 5.46387 117.807 9.39844 171.072c0.015625 0.204102 0.0810547 0.392578 0.104492 0.592773c0.0615234 0.542969 0.166016 1.06738 0.28125 1.5918c0.104492 0.481445 0.211914 0.955078 0.362305 1.41797
c0.158203 0.481445 0.350586 0.944336 0.554688 1.40723c0.204102 0.46582 0.408203 0.924805 0.655273 1.36426c0.231445 0.416016 0.49707 0.801758 0.766602 1.19434c0.292969 0.427734 0.589844 0.847656 0.924805 1.24023
c0.304688 0.354492 0.631836 0.681641 0.966797 1.00879c0.370117 0.362305 0.740234 0.716797 1.14062 1.04004c0.366211 0.292969 0.755859 0.550781 1.14844 0.8125c0.435547 0.285156 0.863281 0.5625 1.32617 0.805664
c0.412109 0.21582 0.839844 0.393555 1.27539 0.574219c0.49707 0.208008 0.994141 0.400391 1.51465 0.554688c0.439453 0.130859 0.894531 0.219727 1.35352 0.3125c0.546875 0.107422 1.09375 0.200195 1.65625 0.25
c0.200195 0.0195312 0.380859 0.0771484 0.581055 0.0888672c58.0674 2.875 84.5361 2.12695 115.179 1.25977z" />
    <glyph glyph-name="six" unicode="6" horiz-adv-x="315" 
d="M23.0977 175.122c-0.990234 57.7939 5.55762 119.197 20.0156 187.73c25.2012 119.468 69.1377 233.136 127.055 328.709c4.4082 7.2793 13.8838 9.61035 21.1709 5.19434c7.2832 -4.41211 9.60645 -13.8916 5.19434 -21.1709
c-56.1406 -92.6445 -98.7637 -202.983 -123.256 -319.099c-8.31152 -39.4053 -13.9219 -76.3135 -16.9004 -111.418c34.9775 41.3584 76.791 57.3574 117.656 43.208c46.5264 -16.1074 83.334 -69.4463 89.5107 -129.706
c6.11133 -59.6123 -18.1768 -122.646 -59.0615 -153.289c-18.5508 -13.9033 -39.8369 -20.7197 -60.8916 -20.7197c-27.0898 -0.00390625 -53.8096 11.2754 -73.8818 33.252c-29.6943 32.5156 -45.3779 85.4424 -46.6113 157.309zM163.945 259.149
c-37.6553 13.0361 -78.6494 -14.2744 -110.12 -73.1279c0.00390625 -3.46777 0.0351562 -6.93164 0.0927734 -10.373c1.08301 -63.2305 14.4121 -110.62 38.5498 -137.043c25.1396 -27.5215 63.5967 -31.082 93.5225 -8.65527
c32.1494 24.0957 51.8672 76.8682 46.8848 125.479c-4.91699 47.9717 -33.9062 91.5928 -68.9297 103.72z" />
    <glyph glyph-name="seven" unicode="7" horiz-adv-x="304" 
d="M109.843 -4.29004c-8.4043 1.37207 -14.1025 9.29883 -12.7266 17.6992c24.3652 148.97 105.041 561.218 123.021 652.775c-37.4785 0.489258 -121.733 1.30957 -153.771 -0.682617c-8.49707 -0.542969 -15.8105 5.93066 -16.3389 14.4277
s5.92969 15.8105 14.4268 16.3389c42.7422 2.65918 169.266 0.566406 174.63 0.473633c4.56641 -0.0771484 8.85938 -2.17383 11.7305 -5.72266c2.87109 -3.55273 4.01562 -8.19238 3.13281 -12.6699c-0.990234 -5.01367 -99.1445 -503.231 -126.407 -669.915
c-1.2373 -7.56055 -7.77637 -12.9287 -15.1943 -12.9287c-0.824219 0 -1.66016 0.0654297 -2.50391 0.204102z" />
    <glyph glyph-name="eight" unicode="8" horiz-adv-x="294" 
d="M161.28 697.23c21.6104 -1.72656 40.9014 -9.39551 55.7988 -22.1924c27.1553 -23.3252 42.9199 -64.0869 48.207 -124.608c6.7666 -77.4541 -7.93848 -188.614 -38.373 -290.095c-0.219727 -0.736328 -0.489258 -1.44141 -0.805664 -2.11621
c7.17871 -11.499 13.7793 -23.6836 19.54 -36.7197c22.8623 -51.7441 26.835 -109.473 10.6201 -154.427c-17.5566 -48.6729 -60.0869 -82.1094 -104.012 -82.1094c-0.774414 0 -1.54492 0.0117188 -2.31934 0.03125c-43.96 1.18262 -85.9697 35.374 -104.535 85.083
c-10.8281 28.9893 -14.4932 63.7744 -10.5977 100.594c3.02539 28.5967 10.4199 58.6494 23.2676 94.5869c1.56055 4.36621 3.00195 8.44727 4.36621 12.3047c11.1904 31.6787 17.3555 49.1387 38.7148 81.3955c-16.4463 18.9395 -32.1914 39.1699 -45.5479 62.1553
c-17.3096 29.7793 -27.2822 59.3584 -29.6406 87.9004c-3.37207 40.7344 -2.31641 139.571 80.0586 177.408c18.7314 8.60449 37.3242 12.2422 55.2578 10.8086zM227.26 77.5361c13.5869 37.6787 9.92188 86.8438 -9.81934 131.513
c-18.4922 41.8594 -47.5781 75.1143 -75.7773 105.587c-3.08301 3.3252 -6.17383 6.64648 -9.26855 9.96777c-3.28711 3.5293 -6.58984 7.07422 -9.88867 10.6426c-15.8066 -24.9121 -21.1475 -40.041 -31.0088 -67.9512
c-1.37598 -3.8916 -2.8291 -8.01074 -4.40527 -12.415c-12.0039 -33.5674 -18.8779 -61.3584 -21.6367 -87.4502c-3.39453 -32.0957 -0.34668 -62.0293 8.81641 -86.5645c14.2148 -38.0605 44.9541 -64.2021 76.4863 -65.0498
c31.7441 -0.839844 63.0879 24.5312 76.502 61.7207zM234.572 547.758c-4.48926 51.3779 -17.1309 86.3359 -37.5811 103.911c-10.042 8.62793 -22.8818 13.6221 -38.1611 14.8438c-1.70703 0.134766 -3.42969 0.204102 -5.16797 0.204102
c-11.0898 0 -22.7578 -2.78613 -34.7646 -8.30078c-64.6533 -29.6943 -65.0391 -112.593 -62.207 -146.854c1.97656 -23.9453 10.5811 -49.1621 25.5713 -74.9531c19.9688 -34.3613 46.7773 -63.1504 72.7031 -90.9912c3.11328 -3.34473 6.22656 -6.68945 9.32812 -10.042
c13.1904 -14.2539 26.5732 -29.1055 39.166 -45.209c25.248 91.9395 37.1016 188.85 31.1133 257.391z" />
    <glyph glyph-name="nine" unicode="9" horiz-adv-x="304" 
d="M199.299 79.21c18.9199 40.0723 27.7021 90.0166 32.6729 124.101c16.8164 115.483 17.749 243.684 2.94434 403.439c-0.736328 7.95703 -1.50293 15.8291 -2.41602 23.5625c-7.90723 -36.8848 -17.0977 -75.9736 -29.3828 -112.339
c-17.8916 -52.958 -40.4033 -93.9043 -66.9072 -121.699c-15.4795 -16.2344 -30.4697 -25.8643 -45.8184 -29.4404c-20.4385 -4.75879 -41.0078 2.23145 -55.0303 18.7051c-14.9785 17.5986 -23.3057 47.166 -22.2764 79.0918
c0.774414 23.9336 6.21191 48.5029 17.1172 77.3223c14.5 38.3066 34.0059 72.4668 56.417 98.793c29.8105 35.0156 62.5029 53.084 94.29 52.333c12.4697 -0.308594 23.4365 -4.07324 32.1455 -10.7861c0.693359 1.54102 1.50293 3.05957 2.45898 4.52734
c4.08496 6.27344 10.3125 10.1807 17.0791 10.7236c6.1582 0.489258 12.0576 -1.88867 16.2656 -6.52441c4.20801 -4.63965 5.72266 -10.4658 6.53223 -13.5986c5.64551 -21.7646 8.05762 -44.5078 10.2197 -67.8369c15.0361 -162.253 14.042 -292.761 -3.13281 -410.726
c-8.4541 -58.0518 -19.3359 -99.0137 -35.293 -132.812c-21.876 -46.3379 -53.7051 -75.6699 -87.334 -80.4678c-2.80957 -0.400391 -5.69238 -0.604492 -8.61328 -0.604492c-24.543 0 -51.9258 14.4854 -63.9717 49.0889c-2.79785 8.03809 1.44824 16.8281 9.48633 19.626
c8.0459 2.80176 16.8242 -1.44824 19.626 -9.48633c7.71484 -22.165 25.2051 -30.0801 39.1123 -28.0996c22.8389 3.25586 46.6953 26.8506 63.8086 63.1074zM173.904 527.834c12.5664 37.2051 21.9023 78.0205 29.9795 116.162
c-1.26758 1.34473 -2.30762 2.94434 -3.04395 4.75586c-3.53711 8.70898 -10.4961 13.252 -20.6924 13.502c-0.385742 0.0117188 -0.771484 0.015625 -1.16113 0.015625c-21.6602 0 -46.0713 -14.6934 -68.8994 -41.5098
c-20.1455 -23.6641 -37.8018 -54.6885 -51.0576 -89.7236c-9.66797 -25.5479 -14.4775 -46.9648 -15.1367 -67.4072c-0.766602 -23.7412 5.09473 -46.5537 14.9365 -58.1143c8.88965 -10.4424 19.1934 -9.90723 24.5576 -8.66211
c9.19043 2.14258 19.4561 9.10547 30.5039 20.6924c23.3789 24.5156 43.5713 61.624 60.0137 110.289z" />
    <glyph glyph-name="colon" unicode=":" horiz-adv-x="147" 
d="M65.4258 361.992c-0.257812 0 -0.525391 0.00195312 -0.791016 0.0175781c-8.50098 0.431641 -15.0439 7.67188 -14.6162 16.1729c1.19824 23.6875 4.41602 47.2246 9.56445 69.9521c1.88477 8.30371 10.1465 13.5059 18.4395 11.6289
c8.30371 -1.88086 13.5098 -10.1348 11.6289 -18.4385c-4.75488 -21.0049 -7.7334 -42.7764 -8.84277 -64.6982c-0.416016 -8.23828 -7.22852 -14.6348 -15.3828 -14.6348zM84.8145 76.4746c8.32715 -1.76855 13.6455 -9.95215 11.8809 -18.2754
c-4.57422 -21.5059 -6.86328 -43.7559 -6.80957 -66.1289c0.0195312 -8.5127 -6.8623 -15.4336 -15.375 -15.4531h-0.0390625c-8.49707 0 -15.3945 6.875 -15.4141 15.376c-0.0615234 24.5459 2.45508 48.9766 7.47656 72.6094
c1.77246 8.32715 9.95312 13.6445 18.2803 11.8721z" />
    <glyph glyph-name="semicolon" unicode=";" horiz-adv-x="197" 
d="M132.642 433.238c8.50098 -0.416016 15.0527 -7.64648 14.6406 -16.1514l-2.90918 -59.7285c-0.400391 -8.24609 -7.21289 -14.6621 -15.3818 -14.6621c-0.25 0 -0.507812 0.0078125 -0.761719 0.0195312c-8.50098 0.412109 -15.0557 7.6416 -14.6436 16.1465
l2.90918 59.7285c0.416016 8.50488 7.64551 15.0635 16.1465 14.6475zM121.699 137.86c8.21973 -2.21973 13.0811 -10.6797 10.8613 -18.9033c-18.6006 -68.8145 -36.1338 -139.225 -52.1143 -209.272c-1.62988 -7.14453 -7.98438 -11.9883 -15.0127 -11.9883
c-1.13672 0 -2.28906 0.126953 -3.44531 0.388672c-8.30371 1.89551 -13.4941 10.1572 -11.5986 18.457c16.0684 70.4404 33.7051 141.251 52.4092 210.459c2.21582 8.21582 10.6621 13.0869 18.9004 10.8594z" />
    <glyph glyph-name="less" unicode="&#x3c;" horiz-adv-x="421" 
d="M361.807 128.494c7.87988 -3.21777 11.6631 -12.2129 8.44531 -20.0967c-2.43945 -5.97266 -8.2002 -9.59082 -14.2734 -9.59082c-1.94238 0 -3.91895 0.370117 -5.82617 1.14844c-64.3408 26.2803 -268.342 140.272 -294.668 162.453
c-3.69531 3.11328 -5.71484 7.7793 -5.46094 12.6035s2.75879 9.25195 6.75879 11.957c97.8535 66.1367 194.821 138.643 288.213 215.511c6.57812 5.41016 16.2891 4.46973 21.6992 -2.10449c5.40625 -6.57031 4.46582 -16.2852 -2.1084 -21.6953
c-88.2285 -72.6182 -179.644 -141.387 -271.987 -204.629c56.1289 -35.7949 216.111 -123.865 269.208 -145.557z" />
    <glyph glyph-name="equal" unicode="=" horiz-adv-x="494" 
d="M65.3994 345.793c-8.22363 0 -15.0557 6.49805 -15.3867 14.7871c-0.34668 8.50879 6.26953 15.6797 14.7744 16.0264c69.9902 2.83594 160.573 1.8457 248.177 0.889648c41.4053 -0.451172 80.5098 -0.878906 115.776 -0.878906
c8.5127 0 15.4141 -6.90137 15.4141 -15.4141s-6.90137 -15.4141 -15.4141 -15.4141c-35.4326 0 -74.6221 0.431641 -116.112 0.882812c-87.2109 0.956055 -177.393 1.93848 -246.593 -0.867188c-0.211914 -0.0078125 -0.423828 -0.0117188 -0.635742 -0.0117188z
M428.739 208.997c8.5127 0 15.418 -6.9043 15.418 -15.417s-6.90137 -15.4141 -15.4141 -15.4141c-35.4326 0 -74.6221 0.431641 -116.112 0.882812c-87.2109 0.956055 -177.393 1.93848 -246.593 -0.867188
c-0.211914 -0.0078125 -0.423828 -0.0117188 -0.635742 -0.0117188c-8.22754 0 -15.0557 6.49707 -15.3906 14.79c-0.34668 8.50879 6.26953 15.6797 14.7744 16.0264c69.9902 2.83594 160.573 1.84961 248.177 0.889648
c41.4053 -0.451172 80.5098 -0.878906 115.776 -0.878906z" />
    <glyph glyph-name="greater" unicode="&#x3e;" horiz-adv-x="421" 
d="M364.609 286.97c4 -2.70508 6.51172 -7.13184 6.76562 -11.9561s-1.76562 -9.49023 -5.46094 -12.6035c-26.3262 -22.1768 -230.323 -136.169 -294.664 -162.453c-1.90723 -0.77832 -3.88379 -1.14844 -5.82617 -1.14844c-6.07324 0 -11.8301 3.61426 -14.2734 9.58691
c-3.21777 7.88379 0.558594 16.8818 8.43848 20.0996c53.0967 21.6914 213.079 109.762 269.204 145.557c-92.3438 63.2383 -183.759 132.011 -271.987 204.629c-6.57422 5.40625 -7.51465 15.1211 -2.1084 21.6953c5.41016 6.57422 15.125 7.51465 21.6992 2.10449
c93.3916 -76.8643 190.359 -149.374 288.213 -215.511z" />
    <glyph glyph-name="question" unicode="?" horiz-adv-x="353" 
d="M300.019 621.093c6.63574 -39.0352 1.59863 -79.2627 -2.77539 -106.125c-9.52539 -58.6533 -26.292 -115.311 -42.5068 -170.103c-20.4424 -69.0801 -41.5781 -140.511 -47.3701 -214.527c-0.635742 -8.07715 -7.38672 -14.2119 -15.3516 -14.2119
c-0.400391 0 -0.808594 0.015625 -1.2168 0.046875c-8.48535 0.663086 -14.8281 8.08496 -14.165 16.5703c6.05371 77.25 27.6562 150.261 48.5498 220.867c15.9414 53.8711 32.4229 109.576 41.6406 166.299c4.01172 24.6885 8.66699 61.5039 2.80176 96.0156
c-5.34473 31.4629 -19.5332 57.377 -37.0234 67.627c-9.8877 5.7959 -22.3613 7.50684 -37.0586 5.0752c-51.7402 -8.54688 -97.7734 -62.7295 -111.946 -131.768c-5.67188 -27.6523 -2.68555 -52.9736 7.43359 -63.0078
c6.0459 -5.99219 6.0918 -15.7529 0.0957031 -21.7988c-5.99219 -6.0459 -15.7568 -6.08789 -21.7949 -0.0957031c-26.7002 26.4658 -18.9434 76.4219 -15.9297 91.1035c16.6816 81.2607 73.0654 145.405 137.117 155.986c21.999 3.62988 41.4014 0.639648 57.6709 -8.89746
c25.5176 -14.9551 44.8926 -48.2451 51.8291 -89.0566zM188.033 53.041c8.5127 0 15.4141 -6.90137 15.4141 -15.4141v-65.5078c0 -8.5127 -6.90137 -15.4141 -15.4141 -15.4141s-15.4141 6.90137 -15.4141 15.4141v65.5078c0 8.5127 6.90137 15.4141 15.4141 15.4141z" />
    <glyph glyph-name="at" unicode="@" horiz-adv-x="679" 
d="M561.658 -56.1006c7.3291 -4.33105 9.75488 -13.7861 5.41992 -21.1152c-39.6094 -66.9844 -92.8945 -117.537 -150.049 -142.338c-28.0801 -12.1846 -57.4004 -18.2422 -86.3516 -18.2422c-35.3818 -0.00390625 -70.209 9.04004 -101.58 26.9932
c-51.7705 29.6289 -97.3145 85.0762 -128.238 156.13c-27.0244 62.0869 -43.498 135.541 -48.9619 218.328c-7.4834 113.387 7.22852 222.281 42.5488 314.914c38.4229 100.768 102.849 181.208 176.762 220.702c81.3809 43.4785 173.416 37.8174 246.203 -15.1553
c37.0547 -26.9658 65.8164 -63.3574 83.1719 -105.232c72.248 -174.325 -11.9229 -370.843 -50.7617 -422.706c-9.50684 -12.6973 -24.5312 -29.7451 -45.124 -31.1553c-18.7969 -1.29102 -37.1973 11.0635 -49.0889 33.0508
c-9.10547 16.8359 -13.3252 36.4883 -16.5312 55.2236c-3.30664 19.333 -5.81152 38.8584 -7.50684 58.4951c-18.0605 -52.2832 -40.1826 -103.808 -71.2139 -145.976c-33.7676 -45.8906 -63.0381 -48.3105 -81.6426 -42.2568
c-36.1836 11.7725 -50.8574 60.8232 -52.5225 102.803c-3.27539 82.6758 30.7539 167.004 84.6787 209.839c29.6602 23.5635 61.4629 31.8906 89.5391 23.4482c18.6895 -5.61816 32.5 -20.2998 41.6523 -38.2451c1.7998 0.362305 3.69141 0.400391 5.59082 0.0800781
c7.68359 -1.29883 13.1826 -8.12695 12.8242 -15.9072c-2.27734 -49.3818 0.748047 -98.8672 8.99414 -147.077c2.75488 -16.1348 6.27344 -32.8428 13.2559 -45.7559c5.62598 -10.4004 13.7529 -17.3867 19.8682 -16.959c4.0498 0.277344 11.248 3.77637 22.5576 18.8779
c19.3984 25.9062 47.0586 85.2646 61.9404 154.38c13.0518 60.6104 21.0479 151.108 -14.9814 238.042c-15.1826 36.6309 -40.3682 68.4834 -72.833 92.1084c-63.0078 45.8477 -142.832 50.6641 -213.539 12.8887c-67.4502 -36.041 -126.678 -110.574 -162.487 -204.494
c-33.748 -88.5176 -47.7861 -192.911 -40.5957 -301.901c5.2334 -79.2344 20.8672 -149.235 46.4697 -208.054c28.2959 -65.0078 69.2383 -115.322 115.287 -141.676c48.5107 -27.7637 106.952 -30.3994 160.35 -7.22852c51.2354 22.2344 99.457 68.3135 135.783 129.749
c4.33105 7.3252 13.7871 9.75293 21.1123 5.42188zM335.529 144.082c40.7773 55.416 65.8486 130.584 87.0273 200.705c-4.9668 22.6465 -17.0859 41.1387 -31.0234 45.3311c-4.43164 1.33301 -8.87109 1.91504 -13.2373 1.91504
c-19.7295 0 -38.0449 -11.8721 -48.2529 -19.9795c-46.5996 -37.0195 -75.9551 -111.151 -73.0459 -184.479c1.50293 -37.8828 14.6465 -69.3037 31.2549 -74.7061c17.7256 -5.76465 38.9619 19.9111 47.2773 31.2129z" />
    <glyph glyph-name="A" unicode="A" horiz-adv-x="367" 
d="M191.65 701.08c104.778 7.16699 134.422 -278.082 157.747 -596.468c3.05566 -41.7559 5.69922 -77.8164 8.29688 -103.025c0.871094 -8.46973 -5.28711 -16.0381 -13.7529 -16.9131c-0.535156 -0.0537109 -1.07031 -0.0810547 -1.59863 -0.0810547
c-7.80273 -0.00390625 -14.4961 5.90332 -15.3135 13.834c-2.64355 25.6602 -5.29883 61.9326 -8.37793 103.931c-7.83008 106.905 -18.5576 253.316 -39.5244 372.218c-1.12891 6.38867 -2.26562 12.5469 -3.40625 18.5312
c-22.373 -0.554688 -39.7979 -1.05176 -54.4102 -1.47168c-30.5889 -0.878906 -49.2471 -1.41113 -76.5371 -1.41113c-12.4199 0 -26.6621 0.111328 -44.5918 0.350586c-2.60059 -11.3369 -5.18262 -23.3477 -7.7373 -36.126
c-24.6426 -123.225 -38.0449 -270.383 -46.9121 -367.763c-3.51465 -38.6191 -6.29297 -69.123 -8.83984 -88.0977c-1.13281 -8.43555 -8.87402 -14.3662 -17.3281 -13.2256c-8.43555 1.12891 -14.3584 8.88965 -13.2256 17.3252
c2.45898 18.3232 5.20996 48.5381 8.69336 86.791c26.5811 291.901 64.3604 603.964 176.818 611.602zM269.435 523.781c-29.4863 133.757 -62.0664 147.47 -75.7002 146.541c-19.0127 -1.29102 -53.2773 -23.918 -86.0273 -149.02
c51.2891 -0.616211 70.5674 -0.0693359 112.728 1.14062c13.418 0.385742 29.2051 0.836914 49 1.33789z" />
    <glyph glyph-name="A" unicode="&#xc5;" horiz-adv-x="367" 
d="M191.65 701.08c104.778 7.16699 134.422 -278.082 157.747 -596.468c3.05566 -41.7559 5.69922 -77.8164 8.29688 -103.025c0.871094 -8.46973 -5.28711 -16.0381 -13.7529 -16.9131c-0.535156 -0.0537109 -1.07031 -0.0810547 -1.59863 -0.0810547
c-7.80273 -0.00390625 -14.4961 5.90332 -15.3135 13.834c-2.64355 25.6602 -5.29883 61.9326 -8.37793 103.931c-7.83008 106.905 -18.5576 253.316 -39.5244 372.218c-1.12891 6.38867 -2.26562 12.5469 -3.40625 18.5312
c-22.373 -0.554688 -39.7979 -1.05176 -54.4102 -1.47168c-30.5889 -0.878906 -49.2471 -1.41113 -76.5371 -1.41113c-12.4199 0 -26.6621 0.111328 -44.5918 0.350586c-2.60059 -11.3369 -5.18262 -23.3477 -7.7373 -36.126
c-24.6426 -123.225 -38.0449 -270.383 -46.9121 -367.763c-3.51465 -38.6191 -6.29297 -69.123 -8.83984 -88.0977c-1.13281 -8.43555 -8.87402 -14.3662 -17.3281 -13.2256c-8.43555 1.12891 -14.3584 8.88965 -13.2256 17.3252
c2.45898 18.3232 5.20996 48.5381 8.69336 86.791c26.5811 291.901 64.3604 603.964 176.818 611.602zM269.435 523.781c-29.4863 133.757 -62.0664 147.47 -75.7002 146.541c-19.0127 -1.29102 -53.2773 -23.918 -86.0273 -149.02
c51.2891 -0.616211 70.5674 -0.0693359 112.728 1.14062c13.418 0.385742 29.2051 0.836914 49 1.33789z" />
    <glyph glyph-name="A" unicode="&#xc4;" horiz-adv-x="367" 
d="M191.65 701.08c104.778 7.16699 134.422 -278.082 157.747 -596.468c3.05566 -41.7559 5.69922 -77.8164 8.29688 -103.025c0.871094 -8.46973 -5.28711 -16.0381 -13.7529 -16.9131c-0.535156 -0.0537109 -1.07031 -0.0810547 -1.59863 -0.0810547
c-7.80273 -0.00390625 -14.4961 5.90332 -15.3135 13.834c-2.64355 25.6602 -5.29883 61.9326 -8.37793 103.931c-7.83008 106.905 -18.5576 253.316 -39.5244 372.218c-1.12891 6.38867 -2.26562 12.5469 -3.40625 18.5312
c-22.373 -0.554688 -39.7979 -1.05176 -54.4102 -1.47168c-30.5889 -0.878906 -49.2471 -1.41113 -76.5371 -1.41113c-12.4199 0 -26.6621 0.111328 -44.5918 0.350586c-2.60059 -11.3369 -5.18262 -23.3477 -7.7373 -36.126
c-24.6426 -123.225 -38.0449 -270.383 -46.9121 -367.763c-3.51465 -38.6191 -6.29297 -69.123 -8.83984 -88.0977c-1.13281 -8.43555 -8.87402 -14.3662 -17.3281 -13.2256c-8.43555 1.12891 -14.3584 8.88965 -13.2256 17.3252
c2.45898 18.3232 5.20996 48.5381 8.69336 86.791c26.5811 291.901 64.3604 603.964 176.818 611.602zM269.435 523.781c-29.4863 133.757 -62.0664 147.47 -75.7002 146.541c-19.0127 -1.29102 -53.2773 -23.918 -86.0273 -149.02
c51.2891 -0.616211 70.5674 -0.0693359 112.728 1.14062c13.418 0.385742 29.2051 0.836914 49 1.33789z" />
    <glyph glyph-name="A" unicode="&#xc3;" horiz-adv-x="367" 
d="M191.65 701.08c104.778 7.16699 134.422 -278.082 157.747 -596.468c3.05566 -41.7559 5.69922 -77.8164 8.29688 -103.025c0.871094 -8.46973 -5.28711 -16.0381 -13.7529 -16.9131c-0.535156 -0.0537109 -1.07031 -0.0810547 -1.59863 -0.0810547
c-7.80273 -0.00390625 -14.4961 5.90332 -15.3135 13.834c-2.64355 25.6602 -5.29883 61.9326 -8.37793 103.931c-7.83008 106.905 -18.5576 253.316 -39.5244 372.218c-1.12891 6.38867 -2.26562 12.5469 -3.40625 18.5312
c-22.373 -0.554688 -39.7979 -1.05176 -54.4102 -1.47168c-30.5889 -0.878906 -49.2471 -1.41113 -76.5371 -1.41113c-12.4199 0 -26.6621 0.111328 -44.5918 0.350586c-2.60059 -11.3369 -5.18262 -23.3477 -7.7373 -36.126
c-24.6426 -123.225 -38.0449 -270.383 -46.9121 -367.763c-3.51465 -38.6191 -6.29297 -69.123 -8.83984 -88.0977c-1.13281 -8.43555 -8.87402 -14.3662 -17.3281 -13.2256c-8.43555 1.12891 -14.3584 8.88965 -13.2256 17.3252
c2.45898 18.3232 5.20996 48.5381 8.69336 86.791c26.5811 291.901 64.3604 603.964 176.818 611.602zM269.435 523.781c-29.4863 133.757 -62.0664 147.47 -75.7002 146.541c-19.0127 -1.29102 -53.2773 -23.918 -86.0273 -149.02
c51.2891 -0.616211 70.5674 -0.0693359 112.728 1.14062c13.418 0.385742 29.2051 0.836914 49 1.33789z" />
    <glyph glyph-name="A" unicode="&#xc2;" horiz-adv-x="367" 
d="M191.65 701.08c104.778 7.16699 134.422 -278.082 157.747 -596.468c3.05566 -41.7559 5.69922 -77.8164 8.29688 -103.025c0.871094 -8.46973 -5.28711 -16.0381 -13.7529 -16.9131c-0.535156 -0.0537109 -1.07031 -0.0810547 -1.59863 -0.0810547
c-7.80273 -0.00390625 -14.4961 5.90332 -15.3135 13.834c-2.64355 25.6602 -5.29883 61.9326 -8.37793 103.931c-7.83008 106.905 -18.5576 253.316 -39.5244 372.218c-1.12891 6.38867 -2.26562 12.5469 -3.40625 18.5312
c-22.373 -0.554688 -39.7979 -1.05176 -54.4102 -1.47168c-30.5889 -0.878906 -49.2471 -1.41113 -76.5371 -1.41113c-12.4199 0 -26.6621 0.111328 -44.5918 0.350586c-2.60059 -11.3369 -5.18262 -23.3477 -7.7373 -36.126
c-24.6426 -123.225 -38.0449 -270.383 -46.9121 -367.763c-3.51465 -38.6191 -6.29297 -69.123 -8.83984 -88.0977c-1.13281 -8.43555 -8.87402 -14.3662 -17.3281 -13.2256c-8.43555 1.12891 -14.3584 8.88965 -13.2256 17.3252
c2.45898 18.3232 5.20996 48.5381 8.69336 86.791c26.5811 291.901 64.3604 603.964 176.818 611.602zM269.435 523.781c-29.4863 133.757 -62.0664 147.47 -75.7002 146.541c-19.0127 -1.29102 -53.2773 -23.918 -86.0273 -149.02
c51.2891 -0.616211 70.5674 -0.0693359 112.728 1.14062c13.418 0.385742 29.2051 0.836914 49 1.33789z" />
    <glyph glyph-name="A" unicode="&#xc1;" horiz-adv-x="367" 
d="M191.65 701.08c104.778 7.16699 134.422 -278.082 157.747 -596.468c3.05566 -41.7559 5.69922 -77.8164 8.29688 -103.025c0.871094 -8.46973 -5.28711 -16.0381 -13.7529 -16.9131c-0.535156 -0.0537109 -1.07031 -0.0810547 -1.59863 -0.0810547
c-7.80273 -0.00390625 -14.4961 5.90332 -15.3135 13.834c-2.64355 25.6602 -5.29883 61.9326 -8.37793 103.931c-7.83008 106.905 -18.5576 253.316 -39.5244 372.218c-1.12891 6.38867 -2.26562 12.5469 -3.40625 18.5312
c-22.373 -0.554688 -39.7979 -1.05176 -54.4102 -1.47168c-30.5889 -0.878906 -49.2471 -1.41113 -76.5371 -1.41113c-12.4199 0 -26.6621 0.111328 -44.5918 0.350586c-2.60059 -11.3369 -5.18262 -23.3477 -7.7373 -36.126
c-24.6426 -123.225 -38.0449 -270.383 -46.9121 -367.763c-3.51465 -38.6191 -6.29297 -69.123 -8.83984 -88.0977c-1.13281 -8.43555 -8.87402 -14.3662 -17.3281 -13.2256c-8.43555 1.12891 -14.3584 8.88965 -13.2256 17.3252
c2.45898 18.3232 5.20996 48.5381 8.69336 86.791c26.5811 291.901 64.3604 603.964 176.818 611.602zM269.435 523.781c-29.4863 133.757 -62.0664 147.47 -75.7002 146.541c-19.0127 -1.29102 -53.2773 -23.918 -86.0273 -149.02
c51.2891 -0.616211 70.5674 -0.0693359 112.728 1.14062c13.418 0.385742 29.2051 0.836914 49 1.33789z" />
    <glyph glyph-name="B" unicode="B" horiz-adv-x="324" 
d="M58.8545 700.533c47.3545 3.19434 145.909 9.82715 192.655 -35.0342c16.8818 -16.2041 25.1055 -37.1895 24.4463 -62.375c-1.3877 -52.8037 -45.2666 -79.6309 -94.2627 -93.665c23.0088 -8.03027 45.2773 -20.6924 64.8262 -40.7188
c45.8057 -46.915 66.7568 -123.533 64.0596 -234.23c-1.93848 -79.4424 -11.9492 -142.904 -54.499 -194.405c-36.0566 -43.6396 -91.5078 -65.6348 -165.201 -65.6348c-14.3809 0 -29.4482 0.835938 -45.209 2.51172c-6.04199 0.643555 -10.8398 4.7207 -12.7979 10.0654
c-1.79199 2.52051 -2.87109 5.58008 -2.87109 8.90918c0 285.173 0 457.302 0.338867 688.438c0.015625 8.5127 6.99023 15.3945 15.4365 15.3906c0.142578 0 0.273438 -0.0380859 0.416016 -0.0419922c0.0654297 0.00390625 0.126953 0.0234375 0.196289 0.0273438
c3.19824 0.134766 7.42188 0.423828 12.4658 0.762695zM279.748 235.26c2.45508 100.54 -16.1504 171.847 -55.2979 211.941c-44.2646 45.3438 -107.638 45.3086 -158.588 45.3008h-3.03223c-0.647461 0 -1.26367 0.111328 -1.8877 0.188477
c-0.115234 -146.962 -0.119141 -289.77 -0.119141 -486.109c79.3926 -6.28516 137.094 11.5332 171.481 53.1543c36.916 44.6807 45.6631 102.482 47.4434 175.524zM245.132 603.932c0.427734 16.377 -4.46875 29.2422 -14.9736 39.3232
c-36.8428 35.3594 -132.67 28.9785 -169.012 26.5312c-0.0732422 -50.7578 -0.130859 -98.8135 -0.172852 -145.999c1.60645 0.0966797 3.28223 0.193359 5.10449 0.297852c48.4727 2.75488 177.224 10.0684 179.054 79.8467z" />
    <glyph glyph-name="C" unicode="C" horiz-adv-x="332" 
d="M74.5791 616.309c22.8203 47.3428 48.1162 75.7559 77.3408 86.8613c36.8506 14.0068 76.9531 4.17285 104.644 -25.6641c27.0244 -29.1201 47.8525 -85.3535 58.6465 -158.342c1.24512 -8.41992 -4.56934 -16.2578 -12.9932 -17.5029
c-8.41211 -1.24805 -16.2539 4.57031 -17.502 12.9941c-9.74512 65.9248 -28.2451 117.638 -50.7451 141.884c-18.9746 20.4463 -46.2148 27.2705 -71.0967 17.8184c-21.1943 -8.05371 -41.5596 -32.0879 -60.5186 -71.4316
c-40.7041 -84.4521 -60.4727 -195.346 -57.1699 -320.698c1.55273 -58.957 7.66797 -105.232 19.2471 -145.632c14.377 -50.1484 53.8936 -134.276 110.689 -131.336c70.5869 3.60645 101.893 57.7012 119.634 206.729c1.00977 8.4502 8.66309 14.4922 17.1289 13.4824
c8.4541 -1.00586 14.4922 -8.67383 13.4863 -17.1279c-13.7178 -115.194 -36.4912 -228.143 -148.676 -233.873c-1.49121 -0.0771484 -2.97852 -0.115234 -4.4502 -0.115234c-68.8145 0 -116.921 82.1318 -137.448 153.744
c-12.3154 42.9697 -18.8086 91.6846 -20.4307 153.316c-3.43359 130.234 17.3906 246.041 60.2139 334.894z" />
    <glyph glyph-name="D" unicode="D" horiz-adv-x="324" 
d="M34.8438 -18.1162c-3.07129 3.06348 -4.88867 7.34473 -4.5498 12.0039c0.00390625 0.0849609 0.0351562 0.158203 0.0429688 0.243164c-0.338867 230.377 -0.338867 391.389 -0.338867 683.174c0 1.38379 0.243164 2.69434 0.582031 3.96973
c-0.0498047 0.269531 -0.150391 0.516602 -0.188477 0.790039c-1.14062 8.43555 4.77051 16.2002 13.2061 17.3447c97.4727 13.2139 168.776 -13.7871 211.896 -80.2549c41.7207 -64.3135 51.5391 -143.922 53.4502 -243.664
c3.15234 -164.669 -29.1934 -280.279 -96.1309 -343.614c-38.8584 -36.7617 -88.0742 -55.3271 -146.527 -55.3271c-7.12109 0 -14.373 0.273438 -21.7637 0.824219c-0.374023 0.03125 -0.716797 0.138672 -1.0791 0.192383
c-0.416016 0.0615234 -0.832031 0.123047 -1.23633 0.219727c-0.674805 0.154297 -1.31836 0.362305 -1.9541 0.605469c-0.257812 0.100586 -0.511719 0.189453 -0.761719 0.300781c-0.740234 0.327148 -1.4375 0.712891 -2.1123 1.14453
c-0.115234 0.0771484 -0.238281 0.150391 -0.353516 0.231445c-0.750977 0.516602 -1.44434 1.09082 -2.0918 1.72656c-0.0273438 0.03125 -0.0585938 0.0585938 -0.0898438 0.0898438zM229.637 602.382c-34.6729 53.4473 -90.0088 75.7119 -168.8 67.9707
c0 -281.717 0.00390625 -441.384 0.320312 -662.863c52.6377 -1.04004 96.4932 14.6357 130.473 46.7852c60.376 57.123 89.4775 165 86.499 320.632c-1.80762 94.459 -10.748 169.293 -48.4922 227.476z" />
    <glyph glyph-name="E" unicode="E" horiz-adv-x="333" 
d="M151.917 703.173c36.8506 14.0068 76.9531 4.1748 104.651 -25.6621c29.7793 -32.0879 51.9824 -94.9062 59.3887 -168.037c0.439453 -4.33105 -0.974609 -8.64258 -3.8877 -11.876s-7.05957 -5.08301 -11.4141 -5.09082
c-1.9502 -0.00390625 -179.709 -0.34668 -236.323 -0.0849609c-14.6162 -62.8994 -21.1592 -133.868 -19.1475 -210.193c1.55273 -58.957 7.66797 -105.232 19.2471 -145.632c14.377 -50.1484 53.8672 -134.276 110.689 -131.336
c70.5869 3.60645 101.893 57.7012 119.634 206.729c1.00977 8.4502 8.68164 14.4922 17.1279 13.4824c8.4541 -1.00586 14.4922 -8.67383 13.4863 -17.1279c-13.7178 -115.194 -36.4912 -228.143 -148.676 -233.873
c-1.49121 -0.0771484 -2.97852 -0.115234 -4.4502 -0.115234c-68.8145 0 -116.921 82.1318 -137.448 153.744c-12.3154 42.9697 -18.8086 91.6846 -20.4307 153.316c-3.43359 130.234 17.3906 246.041 60.2139 334.894c22.8203 47.3428 48.1182 75.7578 77.3389 86.8633z
M72.3086 523.216c51.0195 -0.162109 166.998 0.0126953 210.958 0.0859375c-9.42969 68.8877 -31.1592 113.684 -49.3047 133.236c-18.9746 20.4424 -46.207 27.2705 -71.0967 17.8184c-21.1943 -8.05371 -41.5596 -32.0879 -60.5186 -71.4316
c-11.7842 -24.4463 -21.8145 -51.1201 -30.0381 -79.709z" />
    <glyph glyph-name="E" unicode="&#xcb;" horiz-adv-x="333" 
d="M151.917 703.173c36.8506 14.0068 76.9531 4.1748 104.651 -25.6621c29.7793 -32.0879 51.9824 -94.9062 59.3887 -168.037c0.439453 -4.33105 -0.974609 -8.64258 -3.8877 -11.876s-7.05957 -5.08301 -11.4141 -5.09082
c-1.9502 -0.00390625 -179.709 -0.34668 -236.323 -0.0849609c-14.6162 -62.8994 -21.1592 -133.868 -19.1475 -210.193c1.55273 -58.957 7.66797 -105.232 19.2471 -145.632c14.377 -50.1484 53.8672 -134.276 110.689 -131.336
c70.5869 3.60645 101.893 57.7012 119.634 206.729c1.00977 8.4502 8.68164 14.4922 17.1279 13.4824c8.4541 -1.00586 14.4922 -8.67383 13.4863 -17.1279c-13.7178 -115.194 -36.4912 -228.143 -148.676 -233.873
c-1.49121 -0.0771484 -2.97852 -0.115234 -4.4502 -0.115234c-68.8145 0 -116.921 82.1318 -137.448 153.744c-12.3154 42.9697 -18.8086 91.6846 -20.4307 153.316c-3.43359 130.234 17.3906 246.041 60.2139 334.894c22.8203 47.3428 48.1182 75.7578 77.3389 86.8633z
M72.3086 523.216c51.0195 -0.162109 166.998 0.0126953 210.958 0.0859375c-9.42969 68.8877 -31.1592 113.684 -49.3047 133.236c-18.9746 20.4424 -46.207 27.2705 -71.0967 17.8184c-21.1943 -8.05371 -41.5596 -32.0879 -60.5186 -71.4316
c-11.7842 -24.4463 -21.8145 -51.1201 -30.0381 -79.709z" />
    <glyph glyph-name="E" unicode="&#xca;" horiz-adv-x="333" 
d="M151.917 703.173c36.8506 14.0068 76.9531 4.1748 104.651 -25.6621c29.7793 -32.0879 51.9824 -94.9062 59.3887 -168.037c0.439453 -4.33105 -0.974609 -8.64258 -3.8877 -11.876s-7.05957 -5.08301 -11.4141 -5.09082
c-1.9502 -0.00390625 -179.709 -0.34668 -236.323 -0.0849609c-14.6162 -62.8994 -21.1592 -133.868 -19.1475 -210.193c1.55273 -58.957 7.66797 -105.232 19.2471 -145.632c14.377 -50.1484 53.8672 -134.276 110.689 -131.336
c70.5869 3.60645 101.893 57.7012 119.634 206.729c1.00977 8.4502 8.68164 14.4922 17.1279 13.4824c8.4541 -1.00586 14.4922 -8.67383 13.4863 -17.1279c-13.7178 -115.194 -36.4912 -228.143 -148.676 -233.873
c-1.49121 -0.0771484 -2.97852 -0.115234 -4.4502 -0.115234c-68.8145 0 -116.921 82.1318 -137.448 153.744c-12.3154 42.9697 -18.8086 91.6846 -20.4307 153.316c-3.43359 130.234 17.3906 246.041 60.2139 334.894c22.8203 47.3428 48.1182 75.7578 77.3389 86.8633z
M72.3086 523.216c51.0195 -0.162109 166.998 0.0126953 210.958 0.0859375c-9.42969 68.8877 -31.1592 113.684 -49.3047 133.236c-18.9746 20.4424 -46.207 27.2705 -71.0967 17.8184c-21.1943 -8.05371 -41.5596 -32.0879 -60.5186 -71.4316
c-11.7842 -24.4463 -21.8145 -51.1201 -30.0381 -79.709z" />
    <glyph glyph-name="E" unicode="&#xc9;" horiz-adv-x="333" 
d="M151.917 703.173c36.8506 14.0068 76.9531 4.1748 104.651 -25.6621c29.7793 -32.0879 51.9824 -94.9062 59.3887 -168.037c0.439453 -4.33105 -0.974609 -8.64258 -3.8877 -11.876s-7.05957 -5.08301 -11.4141 -5.09082
c-1.9502 -0.00390625 -179.709 -0.34668 -236.323 -0.0849609c-14.6162 -62.8994 -21.1592 -133.868 -19.1475 -210.193c1.55273 -58.957 7.66797 -105.232 19.2471 -145.632c14.377 -50.1484 53.8672 -134.276 110.689 -131.336
c70.5869 3.60645 101.893 57.7012 119.634 206.729c1.00977 8.4502 8.68164 14.4922 17.1279 13.4824c8.4541 -1.00586 14.4922 -8.67383 13.4863 -17.1279c-13.7178 -115.194 -36.4912 -228.143 -148.676 -233.873
c-1.49121 -0.0771484 -2.97852 -0.115234 -4.4502 -0.115234c-68.8145 0 -116.921 82.1318 -137.448 153.744c-12.3154 42.9697 -18.8086 91.6846 -20.4307 153.316c-3.43359 130.234 17.3906 246.041 60.2139 334.894c22.8203 47.3428 48.1182 75.7578 77.3389 86.8633z
M72.3086 523.216c51.0195 -0.162109 166.998 0.0126953 210.958 0.0859375c-9.42969 68.8877 -31.1592 113.684 -49.3047 133.236c-18.9746 20.4424 -46.207 27.2705 -71.0967 17.8184c-21.1943 -8.05371 -41.5596 -32.0879 -60.5186 -71.4316
c-11.7842 -24.4463 -21.8145 -51.1201 -30.0381 -79.709z" />
    <glyph glyph-name="F" unicode="F" horiz-adv-x="315" 
d="M301.294 696.56c8.5127 0.455078 15.7529 -6.06934 16.2002 -14.582c0.451172 -8.50098 -6.07617 -15.7568 -14.5771 -16.208c-22.1992 -1.17578 -46.1133 -1.57227 -70.71 -1.57227c-26.1875 0 -53.1533 0.451172 -79.6494 0.894531
c-30.6152 0.512695 -59.7666 0.994141 -86.9102 0.813477c-1.21387 -29.4209 -2.88281 -60.8496 -4.63965 -93.8623c-0.782227 -14.7549 -1.58789 -29.9531 -2.37402 -45.417c32.292 -1.0791 90.8799 -1.46484 138.982 -1.78125
c12.1729 -0.0810547 23.5479 -0.154297 33.4707 -0.235352c8.5127 -0.0693359 15.3604 -7.02441 15.291 -15.5371c-0.0732422 -8.46973 -6.95898 -15.29 -15.4131 -15.29h-0.125977c-9.90723 0.0810547 -21.2676 0.154297 -33.4248 0.235352
c-27.0977 0.176758 -57.5088 0.376953 -84.791 0.711914c52.9961 -39.1816 89.0449 -103.584 108.046 -144.712c38.0527 -82.3672 57.6201 -177.481 51.0615 -248.23c-6.53516 -70.5645 -37.9287 -112.162 -88.3896 -117.133
c-4.50879 -0.443359 -8.92871 -0.666992 -13.2637 -0.666992c-29.1162 0 -54.3174 10.0039 -75.0566 29.8301c-90.001 86.0352 -76.0244 348.758 -64.7959 559.86c2.0498 38.5107 3.98438 74.8867 5.20215 108.246c0.3125 8.50879 7.38379 15.2021 15.9688 14.8438
c0.427734 -0.0117188 0.824219 -0.119141 1.24023 -0.168945c31.1201 0.473633 64.7988 -0.0849609 100.443 -0.678711c50.8535 -0.851562 103.449 -1.73047 148.215 0.639648zM241.034 104.641c12.5273 135.201 -75.4766 345.711 -184.162 385.891
c-8.29297 -180.514 -9.5957 -388.426 59.4463 -454.424c17.2783 -16.5117 38.2139 -23.3096 63.9971 -20.7666c43.7441 4.30859 57.166 50.9385 60.7188 89.2998z" />
    <glyph glyph-name="G" unicode="G" horiz-adv-x="331" 
d="M151.921 703.173c36.8545 14.0068 76.9551 4.17383 104.642 -25.667c21.7715 -23.46 38.8379 -61.1426 52.1748 -115.198c2.03809 -8.26562 -3.00977 -16.6201 -11.2754 -18.6582c-8.27344 -2.03418 -16.6201 3.00977 -18.6582 11.2754
c-11.8799 48.168 -26.9658 82.3555 -44.8379 101.611c-18.9746 20.4463 -46.2188 27.2705 -71.0967 17.8184c-21.1943 -8.05371 -41.5557 -32.0879 -60.5225 -71.4316c-40.7041 -84.4482 -60.4688 -195.346 -57.1699 -320.698
c1.55664 -58.9688 7.67188 -105.244 19.251 -145.632c14.8047 -51.6553 54.6104 -137.456 109.795 -131.41c48.1143 5.27148 99.1797 70.9492 108.725 235.761c0.354492 16.8818 0.708984 31.3398 1.04785 41.9248c-15.0049 0.334961 -24.4766 0.168945 -37.251 -0.0546875
c-10.3848 -0.18457 -23.3096 -0.412109 -43.0508 -0.412109c-8.5127 0 -15.4141 6.90137 -15.4141 15.4141s6.90137 15.4141 15.4141 15.4141c19.4639 0 32.2383 0.227539 42.5039 0.408203c15.834 0.277344 27.4902 0.481445 51.127 -0.308594
c0.516602 0.0888672 1.04883 0.0849609 1.57715 0.123047c0.354492 0.0273438 0.697266 0.108398 1.05957 0.108398c0.0693359 0 0.134766 -0.0195312 0.204102 -0.0195312c0.52832 -0.0078125 1.06348 -0.100586 1.59863 -0.162109
c0.516602 -0.0576172 1.04102 -0.0927734 1.54199 -0.204102c0.0693359 -0.015625 0.138672 -0.0117188 0.208008 -0.0273438c0.473633 -0.111328 0.897461 -0.303711 1.34863 -0.454102c0.416016 -0.138672 0.84375 -0.246094 1.24414 -0.419922
c0.635742 -0.277344 1.22168 -0.62793 1.80371 -0.978516c0.231445 -0.142578 0.485352 -0.24707 0.712891 -0.401367c0.801758 -0.546875 1.5498 -1.15918 2.22754 -1.83691c0.0419922 -0.0458984 0.0771484 -0.0996094 0.119141 -0.141602
c0.620117 -0.635742 1.18652 -1.31738 1.6875 -2.0459c0.196289 -0.285156 0.342773 -0.601562 0.520508 -0.902344c0.308594 -0.520508 0.617188 -1.0332 0.864258 -1.58789c0.158203 -0.354492 0.265625 -0.732422 0.396484 -1.10254
c0.192383 -0.546875 0.384766 -1.09375 0.515625 -1.66406c0.0849609 -0.374023 0.130859 -0.759766 0.188477 -1.1416v-0.00390625c0.0078125 -0.0537109 0.0195312 -0.107422 0.0273438 -0.161133c0.0810547 -0.546875 0.138672 -1.09375 0.158203 -1.65625
c0.00390625 -0.169922 0.0498047 -0.328125 0.0498047 -0.498047c0 -18.2959 -0.46582 -35.9326 -1.375 -52.8955c-1.72656 -83.3574 -4.25098 -240.242 -2.72461 -263.217c0.5625 -8.49316 -5.86523 -15.8379 -14.3623 -16.4004
c-0.34668 -0.0234375 -0.693359 -0.0351562 -1.03613 -0.0351562c-8.0498 0 -14.8242 6.25 -15.3633 14.3965c-0.535156 8.06934 -0.454102 45.2012 -0.0302734 91.543c-23.6982 -58.0215 -58.7256 -92.1592 -102.897 -96.999
c-3.20996 -0.354492 -6.37402 -0.524414 -9.46875 -0.524414c-84.7334 0 -125.749 127.648 -133.325 154.079c-12.3154 42.958 -18.8047 91.6768 -20.4307 153.316c-3.43359 130.238 17.3906 246.042 60.2139 334.895c22.8242 47.3428 48.1221 75.7578 77.3428 86.8633z" />
    <glyph glyph-name="H" unicode="H" horiz-adv-x="342" 
d="M280.593 -7.26855c-0.223633 177.03 -0.277344 319.497 -0.289062 504.597c-50.8271 -2.41992 -93.2998 -2.64355 -138.115 -2.87891c-22.8545 -0.119141 -46.4912 -0.242188 -72.4824 -0.654297h-0.250977c-3.19434 0 -6.15723 0.978516 -8.62305 2.65137
c0.015625 -184.656 0.0732422 -326.94 0.334961 -503.666c0.015625 -8.5127 -6.87793 -15.4258 -15.3906 -15.4375h-0.0234375c-8.50488 0 -15.4023 6.88574 -15.4141 15.3906c-0.338867 231.137 -0.338867 403.266 -0.338867 688.438
c0 8.5127 6.90137 15.4141 15.4141 15.4141s15.4141 -6.90137 15.4141 -15.4141c0 -57.1738 0 -109.746 0.00390625 -159.217c2.39648 1.62598 5.27148 2.6123 8.38477 2.66211c26.1572 0.416016 49.875 0.539062 72.8145 0.658203
c44.9043 0.231445 87.4385 0.458984 138.272 2.91406c-0.00390625 47.6475 -0.00390625 98.2158 -0.00390625 152.98c0 8.5127 6.90137 15.4141 15.4141 15.4141s15.4141 -6.90137 15.4141 -15.4141c0 -285.161 0 -457.282 0.292969 -688.399
c0.0117188 -8.5127 -6.88184 -15.4219 -15.3945 -15.4336h-0.0195312c-8.50488 0 -15.4023 6.88574 -15.4141 15.3945z" />
    <glyph glyph-name="I" unicode="I" horiz-adv-x="92" 
d="M45.4141 696.583c8.5127 0 15.4141 -6.90137 15.4141 -15.4102c0 -285.161 0 -457.282 0.338867 -688.396c0.015625 -8.5127 -6.87793 -15.4258 -15.3906 -15.4375h-0.0234375c-8.50488 0 -15.4023 6.88574 -15.4141 15.3906
c-0.338867 231.137 -0.338867 403.266 -0.338867 688.438c0 8.5127 6.90137 15.4141 15.4141 15.4141z" />
    <glyph glyph-name="I" unicode="&#xcf;" horiz-adv-x="92" 
d="M45.4141 696.583c8.5127 0 15.4141 -6.90137 15.4141 -15.4102c0 -285.161 0 -457.282 0.338867 -688.396c0.015625 -8.5127 -6.87793 -15.4258 -15.3906 -15.4375h-0.0234375c-8.50488 0 -15.4023 6.88574 -15.4141 15.3906
c-0.338867 231.137 -0.338867 403.266 -0.338867 688.438c0 8.5127 6.90137 15.4141 15.4141 15.4141z" />
    <glyph glyph-name="I" unicode="&#xce;" horiz-adv-x="92" 
d="M45.4141 696.583c8.5127 0 15.4141 -6.90137 15.4141 -15.4102c0 -285.161 0 -457.282 0.338867 -688.396c0.015625 -8.5127 -6.87793 -15.4258 -15.3906 -15.4375h-0.0234375c-8.50488 0 -15.4023 6.88574 -15.4141 15.3906
c-0.338867 231.137 -0.338867 403.266 -0.338867 688.438c0 8.5127 6.90137 15.4141 15.4141 15.4141z" />
    <glyph glyph-name="I" unicode="&#xcd;" horiz-adv-x="92" 
d="M45.4141 696.583c8.5127 0 15.4141 -6.90137 15.4141 -15.4102c0 -285.161 0 -457.282 0.338867 -688.396c0.015625 -8.5127 -6.87793 -15.4258 -15.3906 -15.4375h-0.0234375c-8.50488 0 -15.4023 6.88574 -15.4141 15.3906
c-0.338867 231.137 -0.338867 403.266 -0.338867 688.438c0 8.5127 6.90137 15.4141 15.4141 15.4141z" />
    <glyph glyph-name="J" unicode="J" horiz-adv-x="247" 
d="M217.744 681.169c0 -41.2393 1.04297 -89.0361 2.14844 -139.644c4.82422 -220.871 10.292 -471.209 -55.2432 -538.193c-12.1807 -12.4463 -26.4541 -18.7578 -42.4307 -18.7578c-61.832 0 -78.6865 52.7461 -86.4629 98.6982
c-10.4893 61.9902 -10.6777 157.459 -10.9629 301.967c-0.0693359 34.9121 -0.142578 72.5908 -0.374023 113.194c-0.0458984 8.51562 6.81738 15.4561 15.3301 15.502h0.0898438c8.47363 0 15.3633 -6.84375 15.4131 -15.3252
c0.231445 -40.6455 0.304688 -78.3633 0.374023 -113.307c0.566406 -287.119 3.5332 -369.895 66.5986 -369.895c7.57617 0 14.0576 3.01758 20.3926 9.49121c56.4678 57.7168 50.6836 322.57 46.4561 515.959c-0.978516 44.9121 -1.90723 87.6006 -2.11133 125.638
c-12.208 -0.701172 -24.3193 -0.958984 -36.3154 -0.958984c-16.7852 0 -33.3398 0.504883 -49.6133 0.998047c-21.957 0.666992 -44.6533 1.35645 -67.2227 0.774414c-8.45801 -0.166016 -15.5869 6.50391 -15.8066 15.0127s6.50488 15.5879 15.0137 15.8076
c23.4326 0.605469 46.5723 -0.0957031 68.9531 -0.777344c32.3691 -0.982422 62.9463 -1.91504 94.7334 0.732422c3.09082 0.25 6.02344 -0.439453 8.55859 -1.7998c7.10938 -1.37207 12.4814 -7.61035 12.4814 -15.1172z" />
    <glyph glyph-name="K" unicode="K" horiz-adv-x="269" 
d="M45.4102 -16.2588c-8.5127 0 -15.4131 6.90039 -15.4092 15.4053c0 285.173 0 457.306 0.338867 688.442c0.0117188 8.50488 6.90918 15.3906 15.4141 15.3906h0.0234375c8.5127 -0.0117188 15.4023 -6.9248 15.3906 -15.4375
c-0.0888672 -60.9229 -0.154297 -117.738 -0.204102 -173.613h1.01367c35.7676 -0.0771484 119.642 -0.211914 151.803 103.564c5.25195 16.9434 7.12891 36.4492 8.94434 55.3115l0.582031 6c0.835938 8.47363 8.38477 14.6621 16.8467 13.834
c8.47363 -0.832031 14.666 -8.37695 13.834 -16.8467l-0.574219 -5.93848c-1.96484 -20.4111 -3.99512 -41.5166 -10.1836 -61.4854c-22.9707 -74.1211 -68.4492 -104.374 -109.866 -116.735c72.3555 -47.3701 92.4814 -154.715 97.3867 -192.663
c14.6543 -113.295 19.1709 -207.954 14.6396 -306.926c-0.37793 -8.26172 -7.19824 -14.709 -15.3867 -14.709c-0.235352 0 -0.474609 0.00390625 -0.717773 0.015625c-8.50488 0.389648 -15.083 7.59961 -14.6934 16.1045
c4.44336 97.1104 -0.00390625 190.117 -14.4199 301.566c-5.37598 41.5479 -30.8467 177.697 -133.044 188.094c-0.750977 -0.00390625 -1.52539 -0.0078125 -2.24219 -0.0078125c-1.0293 0 -2.01562 0.00390625 -2.96777 0.00390625h-0.982422
c-0.111328 -145.162 -0.111328 -287.82 -0.111328 -483.956c0 -8.5127 -6.90137 -15.4141 -15.4141 -15.4141z" />
    <glyph glyph-name="L" unicode="L" horiz-adv-x="222" 
d="M45.4141 696.583c8.5127 0 15.4141 -6.90332 15.4102 -15.4121c0 -278.996 0 -449.822 0.320312 -673.521c16.4004 0.24707 31.6797 0.351562 46.4541 0.44043c35.4941 0.21582 69.0225 0.419922 109.711 2.84375c8.41992 0.512695 15.7949 -5.97266 16.2998 -14.4697
c0.508789 -8.49707 -5.96875 -15.7988 -14.4697 -16.3037c-41.5088 -2.47363 -75.4385 -2.67773 -111.356 -2.89355c-17.3672 -0.104492 -35.3281 -0.211914 -55.0654 -0.578125c-0.0966797 -0.00390625 -0.193359 -0.00390625 -0.290039 -0.00390625
c-1.69141 0 -3.29395 0.338867 -4.82031 0.84375c-0.605469 -0.0732422 -1.20312 -0.188477 -1.83105 -0.188477h-0.0234375c-8.50488 0 -15.4023 6.88574 -15.4141 15.3906c-0.338867 231.137 -0.338867 403.266 -0.338867 688.438
c0 8.5127 6.90137 15.4141 15.4141 15.4141z" />
    <glyph glyph-name="M" unicode="M" horiz-adv-x="416" 
d="M60.0449 685.759c0.107422 -0.34668 0.265625 -0.663086 0.350586 -1.02148l147.147 -618.187l147.255 618.198c0.0849609 0.358398 0.24707 0.678711 0.358398 1.0293c0.176758 0.5625 0.338867 1.12891 0.578125 1.66113
c0.196289 0.447266 0.450195 0.847656 0.685547 1.26758c0.253906 0.447266 0.485352 0.902344 0.782227 1.32227c0.292969 0.412109 0.631836 0.782227 0.962891 1.16406c0.320312 0.366211 0.625 0.744141 0.975586 1.08301
c0.354492 0.338867 0.744141 0.624023 1.12598 0.928711c0.396484 0.3125 0.782227 0.635742 1.20996 0.913086c0.392578 0.253906 0.8125 0.450195 1.22461 0.666016c0.46582 0.243164 0.920898 0.49707 1.41016 0.693359
c0.458984 0.180664 0.936523 0.295898 1.41016 0.43457c0.477539 0.138672 0.947266 0.296875 1.44434 0.389648c0.554688 0.104492 1.12891 0.131836 1.69922 0.173828c0.37793 0.0273438 0.740234 0.112305 1.12598 0.112305
c0.0771484 0 0.146484 -0.0234375 0.223633 -0.0234375c0.512695 -0.0078125 1.0293 -0.0966797 1.5459 -0.158203c0.532227 -0.0615234 1.07129 -0.0966797 1.58789 -0.211914c0.0732422 -0.015625 0.142578 -0.0117188 0.21582 -0.0273438
c0.362305 -0.0849609 0.678711 -0.24707 1.02539 -0.354492c0.566406 -0.180664 1.13672 -0.342773 1.67188 -0.582031c0.439453 -0.196289 0.839844 -0.446289 1.25586 -0.681641c0.451172 -0.253906 0.910156 -0.489258 1.33008 -0.786133
c0.412109 -0.292969 0.782227 -0.631836 1.16406 -0.962891c0.366211 -0.316406 0.744141 -0.621094 1.08301 -0.97168c0.342773 -0.354492 0.631836 -0.74707 0.936523 -1.13281c0.3125 -0.392578 0.632812 -0.774414 0.90625 -1.19824
c0.257812 -0.400391 0.458008 -0.828125 0.677734 -1.25195c0.235352 -0.455078 0.485352 -0.902344 0.677734 -1.38379c0.188477 -0.46582 0.311523 -0.958984 0.450195 -1.44434c0.134766 -0.46582 0.292969 -0.920898 0.381836 -1.40625
c0.104492 -0.570312 0.131836 -1.15234 0.173828 -1.73828c0.0273438 -0.370117 0.112305 -0.720703 0.112305 -1.09863c0 -285.161 0 -457.278 0.404297 -688.392c0.015625 -8.5127 -6.87402 -15.4258 -15.3867 -15.4414h-0.0273438
c-8.50098 0 -15.3984 6.88184 -15.4141 15.3867c-0.334961 193.442 -0.392578 345.595 -0.400391 557.225l-131.849 -553.522c-1.65332 -6.94434 -7.85742 -11.8418 -14.9941 -11.8418c-7.13672 0.00390625 -13.3408 4.90137 -14.9941 11.8457l-131.722 553.406
c0.0078125 -211.558 0.0615234 -363.68 0.400391 -557.061c0.015625 -8.5127 -6.87402 -15.4258 -15.3867 -15.4414h-0.0273438c-8.50098 0 -15.3984 6.88184 -15.4141 15.3867c-0.404297 231.141 -0.404297 403.27 -0.404297 688.446
c0 0.374023 0.0849609 0.724609 0.112305 1.09473c0.0419922 0.582031 0.0693359 1.16797 0.176758 1.73828c0.0888672 0.481445 0.243164 0.932617 0.37793 1.39844c0.138672 0.489258 0.261719 0.982422 0.450195 1.45605
c0.192383 0.477539 0.439453 0.920898 0.674805 1.37207c0.219727 0.427734 0.423828 0.859375 0.685547 1.26367c0.269531 0.419922 0.585938 0.793945 0.894531 1.18359s0.601562 0.786133 0.948242 1.14844c0.331055 0.34668 0.705078 0.643555 1.06738 0.959961
c0.385742 0.331055 0.759766 0.673828 1.17969 0.970703c0.412109 0.292969 0.863281 0.524414 1.30664 0.774414c0.423828 0.239258 0.828125 0.493164 1.2793 0.693359c0.52832 0.239258 1.09082 0.397461 1.64941 0.575195
c0.350586 0.111328 0.673828 0.273438 1.04004 0.362305c0.0732422 0.0195312 0.142578 0.015625 0.21582 0.03125c0.508789 0.111328 1.04395 0.146484 1.57227 0.208008c0.524414 0.0615234 1.04492 0.150391 1.56543 0.158203
c0.0732422 0.00390625 0.142578 0.0234375 0.21582 0.0234375c0.37793 0 0.728516 -0.0849609 1.09473 -0.112305c0.585938 -0.0419922 1.17578 -0.0693359 1.74609 -0.176758c0.473633 -0.0888672 0.920898 -0.243164 1.37988 -0.374023
c0.49707 -0.142578 0.998047 -0.265625 1.47949 -0.458008c0.46582 -0.18457 0.893555 -0.427734 1.33691 -0.655273c0.439453 -0.227539 0.882812 -0.439453 1.29883 -0.705078c0.404297 -0.265625 0.770508 -0.574219 1.14844 -0.871094
c0.400391 -0.316406 0.808594 -0.621094 1.17871 -0.975586c0.334961 -0.323242 0.62793 -0.685547 0.932617 -1.04004c0.342773 -0.392578 0.693359 -0.774414 0.994141 -1.20605c0.289062 -0.412109 0.520508 -0.859375 0.770508 -1.29883
c0.239258 -0.423828 0.493164 -0.828125 0.693359 -1.2793c0.239258 -0.535156 0.405273 -1.10547 0.583008 -1.67188z" />
    <glyph glyph-name="N" unicode="N" horiz-adv-x="346" 
d="M300.114 696.583c8.5127 0 15.4141 -6.90527 15.418 -15.4248c0 -285.161 0 -457.282 0.338867 -688.396c0 -0.0966797 -0.0273438 -0.185547 -0.0273438 -0.27832c-0.0078125 -0.59375 -0.0966797 -1.17188 -0.173828 -1.75781
c-0.0576172 -0.435547 -0.0849609 -0.878906 -0.177734 -1.30273c-0.107422 -0.489258 -0.288086 -0.955078 -0.442383 -1.43262c-0.158203 -0.477539 -0.285156 -0.966797 -0.485352 -1.42188c-0.188477 -0.431641 -0.446289 -0.828125 -0.673828 -1.24414
c-0.24707 -0.447266 -0.466797 -0.90625 -0.755859 -1.32617c-0.292969 -0.419922 -0.643555 -0.790039 -0.974609 -1.18262c-0.304688 -0.358398 -0.585938 -0.736328 -0.920898 -1.06738c-0.358398 -0.350586 -0.766602 -0.643555 -1.15918 -0.959961
c-0.389648 -0.316406 -0.763672 -0.647461 -1.18359 -0.924805c-0.362305 -0.235352 -0.766602 -0.419922 -1.15625 -0.62793c-0.516602 -0.28125 -1.02539 -0.566406 -1.57617 -0.786133c-0.0849609 -0.0351562 -0.158203 -0.0888672 -0.24707 -0.124023
c-0.447266 -0.169922 -0.902344 -0.250977 -1.35352 -0.374023c-0.389648 -0.107422 -0.767578 -0.246094 -1.16797 -0.323242c-0.982422 -0.188477 -1.96094 -0.299805 -2.93555 -0.299805c-0.944336 0 -1.87305 0.115234 -2.79004 0.285156
c-0.28125 0.0498047 -0.550781 0.123047 -0.824219 0.188477c-0.631836 0.154297 -1.24414 0.342773 -1.84961 0.574219c-0.277344 0.104492 -0.558594 0.201172 -0.828125 0.324219c-0.748047 0.331055 -1.47266 0.716797 -2.1582 1.16797
c-0.0615234 0.0419922 -0.126953 0.0693359 -0.18457 0.107422c-0.748047 0.504883 -1.4375 1.09082 -2.08887 1.72266c-0.169922 0.169922 -0.324219 0.350586 -0.490234 0.52832c-0.451172 0.481445 -0.875 0.990234 -1.26758 1.5332
c-0.177734 0.24707 -0.347656 0.494141 -0.509766 0.751953c-0.327148 0.516602 -0.616211 1.06348 -0.885742 1.62598c-0.138672 0.289062 -0.289062 0.570312 -0.408203 0.867188c-0.0380859 0.100586 -0.0957031 0.185547 -0.133789 0.286133
c-54.4336 143.768 -119.511 322.552 -171.798 466.212c-20.207 55.5166 -39.0391 107.253 -53.416 146.35c0 -238.385 0.03125 -398.795 0.339844 -607.08c0.015625 -8.5127 -6.87793 -15.4258 -15.3906 -15.4375h-0.0234375c-8.50488 0 -15.4023 6.88574 -15.4141 15.3906
c-0.338867 231.137 -0.338867 403.266 -0.338867 688.438c0 8.5127 6.90137 15.4141 15.4141 15.4141c6 0 11.1406 -3.45996 13.6875 -8.46191c4.99023 -6.69336 15.001 -34.1992 84.1123 -224.069c42.9502 -118 94.5205 -259.683 141.714 -386.137
c-0.227539 191.284 -0.227539 354.142 -0.227539 603.258c0 8.5127 6.90137 15.4141 15.4141 15.4141z" />
    <glyph glyph-name="O" unicode="O" 
d="M149.1 708.598c32.6582 10.2266 80.4873 8.12402 122.956 -59.9541c43.0732 -69.0537 69.0879 -191.593 67.8936 -319.8c-1.2832 -137.482 -32.585 -248.565 -85.8857 -304.768c-23.8447 -25.1475 -54.8027 -39.4902 -85.1211 -39.4902
c-0.423828 0 -0.84375 0.00390625 -1.26367 0.0078125c-26.3037 0.34668 -49.8486 11.252 -68.0908 31.5322c-90.2705 100.37 -105.542 365.863 -58.8809 536.192c23.9795 87.5381 61.4619 141.578 108.393 156.279zM231.698 45.2891
c104.17 109.85 97.2441 453.911 14.1992 587.035c-20.6777 33.1475 -43.7793 49.8369 -68.8691 49.8369c-6.11914 0 -12.3574 -0.990234 -18.7119 -2.98242c-35.8984 -11.2441 -67.1074 -59.1885 -87.877 -135.005c-43.6514 -159.351 -30.415 -415.723 52.0713 -507.435
c12.3389 -13.7178 28.0996 -21.0898 45.5752 -21.3213c22.0342 -0.296875 45.332 10.5967 63.6123 29.8711z" />
    <glyph glyph-name="O" unicode="&#xd6;" 
d="M149.1 708.598c32.6582 10.2266 80.4873 8.12402 122.956 -59.9541c43.0732 -69.0537 69.0879 -191.593 67.8936 -319.8c-1.2832 -137.482 -32.585 -248.565 -85.8857 -304.768c-23.8447 -25.1475 -54.8027 -39.4902 -85.1211 -39.4902
c-0.423828 0 -0.84375 0.00390625 -1.26367 0.0078125c-26.3037 0.34668 -49.8486 11.252 -68.0908 31.5322c-90.2705 100.37 -105.542 365.863 -58.8809 536.192c23.9795 87.5381 61.4619 141.578 108.393 156.279zM231.698 45.2891
c104.17 109.85 97.2441 453.911 14.1992 587.035c-20.6777 33.1475 -43.7793 49.8369 -68.8691 49.8369c-6.11914 0 -12.3574 -0.990234 -18.7119 -2.98242c-35.8984 -11.2441 -67.1074 -59.1885 -87.877 -135.005c-43.6514 -159.351 -30.415 -415.723 52.0713 -507.435
c12.3389 -13.7178 28.0996 -21.0898 45.5752 -21.3213c22.0342 -0.296875 45.332 10.5967 63.6123 29.8711z" />
    <glyph glyph-name="O" unicode="&#xd5;" 
d="M149.1 708.598c32.6582 10.2266 80.4873 8.12402 122.956 -59.9541c43.0732 -69.0537 69.0879 -191.593 67.8936 -319.8c-1.2832 -137.482 -32.585 -248.565 -85.8857 -304.768c-23.8447 -25.1475 -54.8027 -39.4902 -85.1211 -39.4902
c-0.423828 0 -0.84375 0.00390625 -1.26367 0.0078125c-26.3037 0.34668 -49.8486 11.252 -68.0908 31.5322c-90.2705 100.37 -105.542 365.863 -58.8809 536.192c23.9795 87.5381 61.4619 141.578 108.393 156.279zM231.698 45.2891
c104.17 109.85 97.2441 453.911 14.1992 587.035c-20.6777 33.1475 -43.7793 49.8369 -68.8691 49.8369c-6.11914 0 -12.3574 -0.990234 -18.7119 -2.98242c-35.8984 -11.2441 -67.1074 -59.1885 -87.877 -135.005c-43.6514 -159.351 -30.415 -415.723 52.0713 -507.435
c12.3389 -13.7178 28.0996 -21.0898 45.5752 -21.3213c22.0342 -0.296875 45.332 10.5967 63.6123 29.8711z" />
    <glyph glyph-name="O" unicode="&#xd4;" 
d="M149.1 708.598c32.6582 10.2266 80.4873 8.12402 122.956 -59.9541c43.0732 -69.0537 69.0879 -191.593 67.8936 -319.8c-1.2832 -137.482 -32.585 -248.565 -85.8857 -304.768c-23.8447 -25.1475 -54.8027 -39.4902 -85.1211 -39.4902
c-0.423828 0 -0.84375 0.00390625 -1.26367 0.0078125c-26.3037 0.34668 -49.8486 11.252 -68.0908 31.5322c-90.2705 100.37 -105.542 365.863 -58.8809 536.192c23.9795 87.5381 61.4619 141.578 108.393 156.279zM231.698 45.2891
c104.17 109.85 97.2441 453.911 14.1992 587.035c-20.6777 33.1475 -43.7793 49.8369 -68.8691 49.8369c-6.11914 0 -12.3574 -0.990234 -18.7119 -2.98242c-35.8984 -11.2441 -67.1074 -59.1885 -87.877 -135.005c-43.6514 -159.351 -30.415 -415.723 52.0713 -507.435
c12.3389 -13.7178 28.0996 -21.0898 45.5752 -21.3213c22.0342 -0.296875 45.332 10.5967 63.6123 29.8711z" />
    <glyph glyph-name="O" unicode="&#xd3;" 
d="M149.1 708.598c32.6582 10.2266 80.4873 8.12402 122.956 -59.9541c43.0732 -69.0537 69.0879 -191.593 67.8936 -319.8c-1.2832 -137.482 -32.585 -248.565 -85.8857 -304.768c-23.8447 -25.1475 -54.8027 -39.4902 -85.1211 -39.4902
c-0.423828 0 -0.84375 0.00390625 -1.26367 0.0078125c-26.3037 0.34668 -49.8486 11.252 -68.0908 31.5322c-90.2705 100.37 -105.542 365.863 -58.8809 536.192c23.9795 87.5381 61.4619 141.578 108.393 156.279zM231.698 45.2891
c104.17 109.85 97.2441 453.911 14.1992 587.035c-20.6777 33.1475 -43.7793 49.8369 -68.8691 49.8369c-6.11914 0 -12.3574 -0.990234 -18.7119 -2.98242c-35.8984 -11.2441 -67.1074 -59.1885 -87.877 -135.005c-43.6514 -159.351 -30.415 -415.723 52.0713 -507.435
c12.3389 -13.7178 28.0996 -21.0898 45.5752 -21.3213c22.0342 -0.296875 45.332 10.5967 63.6123 29.8711z" />
    <glyph glyph-name="P" unicode="P" horiz-adv-x="270" 
d="M58.7354 700.521c44.3564 2.95215 148.232 9.87695 194.315 -35.5322c16.4854 -16.2461 24.1846 -37.1934 22.8818 -62.2559c-1.25195 -24.0723 -11.7988 -44.7383 -31.3584 -61.4277c-45.1582 -38.5303 -128.601 -45.8867 -173.612 -45.8867
c-3.61035 0 -6.93555 0.0537109 -10.0107 0.134766c-0.123047 -150.627 -0.123047 -296.422 -0.123047 -499.594c0 -8.5127 -6.90137 -15.4141 -15.4141 -15.4141s-15.4141 6.90137 -15.4141 15.4141c0 285.173 0 457.302 0.338867 688.438
c0.0117188 8.50488 6.90918 15.3906 15.4141 15.3906h0.0234375c0.142578 0 0.273438 -0.0380859 0.416016 -0.0419922c0.0654297 0.00390625 0.126953 0.0234375 0.196289 0.0273438c3.16406 0.134766 7.34863 0.416016 12.3467 0.74707zM231.41 643.028
c-36.1025 35.5791 -133.245 29.2236 -170.269 26.7578c-0.0693359 -49.8516 -0.126953 -97.0986 -0.168945 -143.471c39.3125 -1.3252 124.146 4.78613 163.585 38.4385c13.0479 11.1289 19.7803 24.0762 20.5859 39.5742
c0.839844 16.1074 -3.65332 28.7656 -13.7334 38.7002z" />
    <glyph glyph-name="Q" unicode="Q" 
d="M149.1 708.598c32.6582 10.2266 80.4873 8.125 122.96 -59.957c43.0732 -69.0537 69.0879 -191.593 67.8936 -319.8c-1.2832 -137.482 -32.585 -248.565 -85.8857 -304.768c-10.208 -10.7627 -21.7256 -19.5293 -33.9297 -26.0566
c15.7607 -41.0771 32.6582 -81.4648 50.5186 -120.72c3.52246 -7.74512 0.100586 -16.8857 -7.64844 -20.4121c-2.06934 -0.94043 -4.23926 -1.3877 -6.37402 -1.3877c-5.85742 0 -11.4561 3.35254 -14.042 9.03223c-18.1416 39.875 -35.3008 80.8945 -51.3037 122.611
c-7.41016 -1.67969 -14.8975 -2.55469 -22.3457 -2.55469c-0.423828 0 -0.84375 0.00390625 -1.26367 0.0078125c-26.3037 0.34668 -49.8486 11.252 -68.0908 31.5322c-90.2705 100.37 -105.542 365.863 -58.8809 536.192c23.9795 87.5381 61.4619 141.578 108.393 156.279z
M231.698 45.2891c104.166 109.85 97.2422 453.909 14.1934 587.037c-20.6777 33.1475 -43.7793 49.8369 -68.8691 49.8369c-6.11914 0 -12.3574 -0.990234 -18.7119 -2.98242c-35.8984 -11.2441 -67.1074 -59.1885 -87.877 -135.005
c-43.6514 -159.351 -30.415 -415.723 52.0713 -507.435c12.3389 -13.7178 28.0996 -21.0898 45.5752 -21.3213c4.05371 -0.0537109 8.14648 0.273438 12.2393 0.955078c-5.75293 15.6338 -11.3555 31.3438 -16.7656 47.1201c-2.7627 8.0498 1.53027 16.8164 9.58008 19.5791
c8.05371 2.75879 16.8203 -1.52637 19.583 -9.58008c5.31348 -15.502 10.8242 -30.9385 16.4736 -46.3018c7.99219 4.73633 15.6025 10.8174 22.5078 18.0967z" />
    <glyph glyph-name="R" unicode="R" horiz-adv-x="291" 
d="M58.6387 700.51c44.7998 2.95898 149.707 9.89551 195.362 -35.8486c16.2422 -16.2773 23.6143 -37.1934 21.915 -62.1709c-4.64355 -68.1367 -79.3926 -93.5889 -140.866 -102.964c53.085 -24.7549 100.952 -81.4775 116.354 -200.545
c14.6543 -113.291 19.1709 -207.95 14.6436 -306.93c-0.37793 -8.26172 -7.19824 -14.709 -15.3867 -14.709c-0.239258 0 -0.474609 0.00390625 -0.717773 0.015625c-8.50488 0.389648 -15.083 7.59961 -14.6934 16.1045
c4.44727 97.1221 -0.00390625 190.125 -14.416 301.566c-15.9229 123.102 -69.709 187.118 -159.891 190.459c-0.115234 -147.093 -0.115234 -290.884 -0.115234 -489.528c0 -8.5127 -6.90137 -15.4141 -15.4141 -15.4141s-15.4141 6.90137 -15.4141 15.4141
c0 285.173 0 457.302 0.338867 688.438c0.0117188 8.50488 6.90918 15.3906 15.4141 15.3906h0.0234375c0.142578 0 0.273438 -0.0380859 0.416016 -0.0419922c0.0693359 0.00390625 0.130859 0.0234375 0.200195 0.0273438
c3.13672 0.130859 7.2832 0.408203 12.2461 0.735352zM232.19 642.874c-35.6328 35.7061 -133.581 29.3828 -171.044 26.9014c-0.0693359 -50.3408 -0.126953 -98.0273 -0.168945 -144.839c43.4902 -0.928711 179.404 9.46387 184.183 79.6387
c1.08691 15.9375 -3.15527 28.4648 -12.9697 38.2988z" />
    <glyph glyph-name="S" unicode="S" horiz-adv-x="268" 
d="M28.6289 606.231c25.3096 52.7344 76.7686 85.1826 131.287 82.6475c27.0625 -1.25195 53.1387 -14.3193 71.5312 -35.8486c22.6924 -26.5498 32.6309 -64.2676 27.9912 -106.2c-0.936523 -8.46191 -8.58594 -14.5469 -17.0137 -13.626
c-8.46191 0.936523 -14.5615 8.55469 -13.625 17.0166c4.73242 42.7812 -8.69336 68.6299 -20.7852 82.7832c-12.8896 15.0781 -30.9434 24.2188 -49.5322 25.082c-41.9756 1.93066 -82.1055 -23.6445 -102.051 -65.2002
c-26.5273 -55.2773 -11.2217 -127.521 0.257812 -165.663c14.2656 -47.3857 51.3203 -89.5117 90.5479 -134.107c60.1826 -68.4219 122.415 -139.171 106.315 -236.663c-6.50098 -39.3477 -26.5352 -70.4482 -54.9697 -85.3223
c-10.1807 -5.3252 -24.0264 -9.95703 -41.3818 -9.95703c-15.1514 0 -32.9775 3.5293 -53.3701 13.209c-75.3848 35.7832 -71.4854 164.318 -66.3145 196.783c1.34082 8.4043 9.24805 14.1348 17.6445 12.7979c8.4043 -1.34082 14.1387 -9.24023 12.7979 -17.6484
c-5.34473 -33.5479 -3.6377 -139.059 49.085 -164.083c25.5439 -12.123 48.8037 -13.4336 67.2461 -3.78418c19.7793 10.3467 33.9365 33.3213 38.8418 63.0312c13.7178 83.0762 -41.0586 145.352 -99.0488 211.28c-39.6787 45.1123 -80.7139 91.7617 -96.918 145.583
c-12.7705 42.4189 -29.5635 123.233 1.46387 187.89z" />
    <glyph glyph-name="T" unicode="T" horiz-adv-x="289" 
d="M146.441 696.583c0.948242 0 1.86328 -0.111328 2.76074 -0.28125c44.3027 -0.385742 88.1514 -0.524414 139.274 0.697266c8.41602 0.24707 15.5752 -6.53125 15.7793 -15.04s-6.53125 -15.5723 -15.04 -15.7764
c-30.6191 -0.732422 -58.6064 -0.979492 -85.6113 -0.979492c-14.1074 0 -27.9492 0.0654297 -41.7559 0.169922c0 -275.744 0.0078125 -445.808 0.338867 -672.602c0.0117188 -8.5127 -6.87793 -15.4258 -15.3906 -15.4375h-0.0234375
c-8.50488 0 -15.4023 6.88574 -15.4141 15.3906c-0.334961 226.89 -0.338867 396.999 -0.338867 672.916c-3.26367 0.0351562 -6.50781 0.0664062 -9.79102 0.0976562c-38.0723 0.37793 -77.4277 0.770508 -121.707 0.439453h-0.115234
c-8.45801 0 -15.3438 6.82422 -15.4092 15.2979c-0.0615234 8.5127 6.79004 15.4678 15.3027 15.5293c44.5342 0.323242 84.0361 -0.0625 122.239 -0.44043c7.57227 -0.0732422 15.0869 -0.146484 22.582 -0.21582c0.762695 0.115234 1.52539 0.234375 2.31934 0.234375z
" />
    <glyph glyph-name="U" unicode="U" horiz-adv-x="348" 
d="M40.9648 699.435c8.41211 -1.32129 14.1533 -9.21289 12.832 -17.6211c-7.83008 -49.7363 -21.0781 -507.947 77.2266 -630.209c13.7139 -17.0596 28.3301 -25.8301 44.6797 -26.8164c16.416 -0.982422 30.7197 4.56641 43.6328 17.001
c86.7217 83.5381 78.8184 429.812 74.5684 615.844l-0.635742 28.3691c-0.18457 8.50879 6.56641 15.5566 15.0791 15.7412c8.60449 0.196289 15.5596 -6.57031 15.7402 -15.0791l0.635742 -28.3301c4.66309 -204.146 12.4629 -545.826 -84 -638.748
c-17.7529 -17.0977 -38.334 -25.7412 -61.25 -25.7412c-1.86133 0 -3.73828 0.0537109 -5.62988 0.168945c-25.1592 1.51855 -47.6514 14.3926 -66.8496 38.2725c-45.9795 57.1885 -74.5947 179.258 -85.0488 362.819c-7.67969 134.805 -2.43945 267.132 1.39844 291.501
c1.3252 8.4082 9.21289 14.1533 17.6211 12.8281z" />
    <glyph glyph-name="U" unicode="&#xdc;" horiz-adv-x="348" 
d="M40.9648 699.435c8.41211 -1.32129 14.1533 -9.21289 12.832 -17.6211c-7.83008 -49.7363 -21.0781 -507.947 77.2266 -630.209c13.7139 -17.0596 28.3301 -25.8301 44.6797 -26.8164c16.416 -0.982422 30.7197 4.56641 43.6328 17.001
c86.7217 83.5381 78.8184 429.812 74.5684 615.844l-0.635742 28.3691c-0.18457 8.50879 6.56641 15.5566 15.0791 15.7412c8.60449 0.196289 15.5596 -6.57031 15.7402 -15.0791l0.635742 -28.3301c4.66309 -204.146 12.4629 -545.826 -84 -638.748
c-17.7529 -17.0977 -38.334 -25.7412 -61.25 -25.7412c-1.86133 0 -3.73828 0.0537109 -5.62988 0.168945c-25.1592 1.51855 -47.6514 14.3926 -66.8496 38.2725c-45.9795 57.1885 -74.5947 179.258 -85.0488 362.819c-7.67969 134.805 -2.43945 267.132 1.39844 291.501
c1.3252 8.4082 9.21289 14.1533 17.6211 12.8281z" />
    <glyph glyph-name="U" unicode="&#xdb;" horiz-adv-x="348" 
d="M40.9648 699.435c8.41211 -1.32129 14.1533 -9.21289 12.832 -17.6211c-7.83008 -49.7363 -21.0781 -507.947 77.2266 -630.209c13.7139 -17.0596 28.3301 -25.8301 44.6797 -26.8164c16.416 -0.982422 30.7197 4.56641 43.6328 17.001
c86.7217 83.5381 78.8184 429.812 74.5684 615.844l-0.635742 28.3691c-0.18457 8.50879 6.56641 15.5566 15.0791 15.7412c8.60449 0.196289 15.5596 -6.57031 15.7402 -15.0791l0.635742 -28.3301c4.66309 -204.146 12.4629 -545.826 -84 -638.748
c-17.7529 -17.0977 -38.334 -25.7412 -61.25 -25.7412c-1.86133 0 -3.73828 0.0537109 -5.62988 0.168945c-25.1592 1.51855 -47.6514 14.3926 -66.8496 38.2725c-45.9795 57.1885 -74.5947 179.258 -85.0488 362.819c-7.67969 134.805 -2.43945 267.132 1.39844 291.501
c1.3252 8.4082 9.21289 14.1533 17.6211 12.8281z" />
    <glyph glyph-name="U" unicode="&#xda;" horiz-adv-x="348" 
d="M40.9648 699.435c8.41211 -1.32129 14.1533 -9.21289 12.832 -17.6211c-7.83008 -49.7363 -21.0781 -507.947 77.2266 -630.209c13.7139 -17.0596 28.3301 -25.8301 44.6797 -26.8164c16.416 -0.982422 30.7197 4.56641 43.6328 17.001
c86.7217 83.5381 78.8184 429.812 74.5684 615.844l-0.635742 28.3691c-0.18457 8.50879 6.56641 15.5566 15.0791 15.7412c8.60449 0.196289 15.5596 -6.57031 15.7402 -15.0791l0.635742 -28.3301c4.66309 -204.146 12.4629 -545.826 -84 -638.748
c-17.7529 -17.0977 -38.334 -25.7412 -61.25 -25.7412c-1.86133 0 -3.73828 0.0537109 -5.62988 0.168945c-25.1592 1.51855 -47.6514 14.3926 -66.8496 38.2725c-45.9795 57.1885 -74.5947 179.258 -85.0488 362.819c-7.67969 134.805 -2.43945 267.132 1.39844 291.501
c1.3252 8.4082 9.21289 14.1533 17.6211 12.8281z" />
    <glyph glyph-name="V" unicode="V" horiz-adv-x="381" 
d="M187.896 67.1064c18.9932 65.4775 52.6357 190.765 83.29 304.949c30.2607 112.686 61.5469 229.205 85.8076 315.564c2.30078 8.19629 10.8096 12.9785 19.0098 10.6699c8.19629 -2.30469 12.9746 -10.8135 10.6699 -19.0098
c-24.2109 -86.1895 -55.4736 -202.625 -85.708 -315.223c-24.7734 -92.2627 -48.1758 -179.408 -66.3369 -244.894c-32.0918 -115.695 -33.3438 -116.135 -43.0967 -119.564c-1.65332 -0.582031 -3.39551 -0.867188 -5.12988 -0.867188
c-3.29883 0 -6.59375 1.02539 -9.2793 2.99414c-5.02441 3.67969 -5.02441 3.67969 -18.3076 54.7256c-7.47559 28.7314 -17.8418 69.0498 -29.8457 115.742c-43.2393 168.194 -108.59 422.37 -135.29 509.635c-2.49316 8.13867 2.08887 16.7588 10.2314 19.248
c8.15039 2.49707 16.7588 -2.09668 19.248 -10.2314c26.9004 -87.9355 92.3545 -342.517 135.667 -510.98c11.1211 -43.2627 21.4443 -83.4229 29.0703 -112.759z" />
    <glyph glyph-name="W" unicode="W" horiz-adv-x="453" 
d="M437.628 698.68c8.41211 -1.27148 14.2061 -9.11914 12.9268 -17.5391c-24.8008 -164.557 -111.61 -673.098 -112.485 -678.215c-1.26758 -7.41406 -7.69141 -12.8203 -15.1904 -12.8203h-0.208008c-7.58789 0.100586 -13.9766 5.71094 -15.0518 13.2217
l-81.2188 565.684c-9.02051 -62.8691 -21.0205 -146.4 -33.0244 -229.946c-24.1221 -167.883 -48.2676 -335.742 -48.2676 -335.742c-1.0791 -7.51074 -7.46387 -13.1172 -15.0518 -13.2178h-0.208008c-7.49902 0 -13.9229 5.40625 -15.1904 12.8203
c-0.871094 5.11719 -87.6807 513.658 -112.485 678.215c-1.27148 8.41992 4.52441 16.2734 12.9404 17.541c8.42773 1.27539 16.2734 -4.52832 17.541 -12.9443c18.1035 -120.081 69.3389 -423.989 95.9316 -580.785c26.4844 184.213 81.415 566.323 82.3936 574.003
l0.227539 -0.03125c0.801758 6.77051 5.99609 12.4424 13.0596 13.4561c5.96875 0.851562 11.6064 -1.88867 14.8281 -6.54395c0.847656 -1.05957 1.46777 -2.05371 1.83398 -3.42578c0.362305 -0.982422 0.631836 -2.01855 0.786133 -3.09766l82.4561 -574.288
c26.5967 156.819 77.8203 460.654 95.916 580.712c1.26758 8.41602 9.11719 14.2119 17.541 12.9443z" />
    <glyph glyph-name="X" unicode="X" horiz-adv-x="342" 
d="M6.50098 686.854c7.86914 3.26758 16.8867 -0.461914 20.1387 -8.31934c45.8291 -110.297 93.2529 -220.347 141.926 -329.395c50.6221 110.188 100.343 221.094 148.808 331.965c3.41406 7.7998 12.5078 11.3604 20.2998 7.9502
c7.7998 -3.41016 11.3604 -12.4961 7.9502 -20.2959c-52.1172 -119.226 -105.715 -238.47 -160.295 -356.847c43.5557 -96.8096 88.0166 -192.81 133.256 -287.361c3.67188 -7.67578 0.423828 -16.8818 -7.25195 -20.5537
c-2.14648 -1.0293 -4.41602 -1.51465 -6.64355 -1.51465c-5.74902 0 -11.2637 3.2334 -13.915 8.7666c-41.54 86.8213 -82.4287 174.86 -122.57 263.62c-42.0098 -90.6211 -84.5596 -180.684 -127.514 -269.705c-2.65527 -5.51074 -8.16211 -8.7207 -13.8926 -8.7207
c-2.24609 0 -4.52344 0.493164 -6.68555 1.5332c-7.66406 3.69922 -10.8818 12.9131 -7.18262 20.5811c46.7109 96.8135 92.9443 194.86 138.519 293.523c-52.6338 117.313 -103.893 235.807 -153.263 354.623c-3.26758 7.86133 0.455078 16.8818 8.31641 20.1494z" />
    <glyph glyph-name="Y" unicode="Y" horiz-adv-x="340" 
d="M79.8281 521.854c31.54 -87.2803 66.2627 -183.364 85.2832 -230.843c29.8838 78.7217 105.665 277.608 156.041 403.169c3.16406 7.89941 12.1426 11.7334 20.042 8.56543c7.90332 -3.1709 11.7373 -12.1455 8.56641 -20.0449
c-63.4932 -158.271 -167.521 -433.479 -168.564 -436.242c-0.015625 -0.0380859 -0.0351562 -0.0693359 -0.0507812 -0.104492v-8.0498c0 -60.7646 0 -187.203 -0.243164 -231.587c-0.0498047 -8.48535 -6.93945 -15.3291 -15.4131 -15.3291h-0.0859375
c-8.5127 0.0458984 -15.376 6.98633 -15.3301 15.499c0.24707 44.2988 0.243164 170.68 0.243164 231.414v10.5664c-11.2441 20.4463 -33.4941 79.9082 -99.4805 262.507c-20.2227 55.9561 -41.1318 113.815 -59.875 164.55
c-2.95215 7.98438 1.12891 16.8477 9.11328 19.7998c7.97656 2.94043 16.8506 -1.12891 19.8027 -9.11719c18.7852 -50.8379 39.7129 -108.747 59.9512 -164.753z" />
    <glyph glyph-name="Y" unicode="&#x178;" horiz-adv-x="340" 
d="M79.8281 521.854c31.54 -87.2803 66.2627 -183.364 85.2832 -230.843c29.8838 78.7217 105.665 277.608 156.041 403.169c3.16406 7.89941 12.1426 11.7334 20.042 8.56543c7.90332 -3.1709 11.7373 -12.1455 8.56641 -20.0449
c-63.4932 -158.271 -167.521 -433.479 -168.564 -436.242c-0.015625 -0.0380859 -0.0351562 -0.0693359 -0.0507812 -0.104492v-8.0498c0 -60.7646 0 -187.203 -0.243164 -231.587c-0.0498047 -8.48535 -6.93945 -15.3291 -15.4131 -15.3291h-0.0859375
c-8.5127 0.0458984 -15.376 6.98633 -15.3301 15.499c0.24707 44.2988 0.243164 170.68 0.243164 231.414v10.5664c-11.2441 20.4463 -33.4941 79.9082 -99.4805 262.507c-20.2227 55.9561 -41.1318 113.815 -59.875 164.55
c-2.95215 7.98438 1.12891 16.8477 9.11328 19.7998c7.97656 2.94043 16.8506 -1.12891 19.8027 -9.11719c18.7852 -50.8379 39.7129 -108.747 59.9512 -164.753z" />
    <glyph glyph-name="Y" unicode="&#xdd;" horiz-adv-x="340" 
d="M79.8281 521.854c31.54 -87.2803 66.2627 -183.364 85.2832 -230.843c29.8838 78.7217 105.665 277.608 156.041 403.169c3.16406 7.89941 12.1426 11.7334 20.042 8.56543c7.90332 -3.1709 11.7373 -12.1455 8.56641 -20.0449
c-63.4932 -158.271 -167.521 -433.479 -168.564 -436.242c-0.015625 -0.0380859 -0.0351562 -0.0693359 -0.0507812 -0.104492v-8.0498c0 -60.7646 0 -187.203 -0.243164 -231.587c-0.0498047 -8.48535 -6.93945 -15.3291 -15.4131 -15.3291h-0.0859375
c-8.5127 0.0458984 -15.376 6.98633 -15.3301 15.499c0.24707 44.2988 0.243164 170.68 0.243164 231.414v10.5664c-11.2441 20.4463 -33.4941 79.9082 -99.4805 262.507c-20.2227 55.9561 -41.1318 113.815 -59.875 164.55
c-2.95215 7.98438 1.12891 16.8477 9.11328 19.7998c7.97656 2.94043 16.8506 -1.12891 19.8027 -9.11719c18.7852 -50.8379 39.7129 -108.747 59.9512 -164.753z" />
    <glyph glyph-name="Z" unicode="Z" horiz-adv-x="293" 
d="M-4.31641 -1.88965c-2.92871 4.29297 -3.5 9.77441 -1.50781 14.584l267.328 646.863c-43.96 0.381836 -143.667 1.00977 -228.836 -0.176758c-8.57812 -0.257812 -15.5107 6.68652 -15.6299 15.1992s6.68555 15.5068 15.1982 15.626
c112.852 1.57617 251.024 -0.0234375 252.4 -0.0429688c5.11328 -0.0615234 9.86426 -2.65137 12.6807 -6.9209s3.33301 -9.65234 1.37891 -14.3809l-267.051 -646.189c53.3857 1.00195 181.45 3.22168 225.88 2.43164c8.5127 -0.150391 15.291 -7.1709 15.1367 -15.6836
c-0.146484 -8.41992 -7.01758 -15.1406 -15.4062 -15.1406c-0.0888672 0 -0.185547 0.00390625 -0.27832 0.00390625c-54.8994 0.966797 -246.33 -2.84766 -248.257 -2.88574c-0.100586 -0.00390625 -0.208008 -0.00390625 -0.308594 -0.00390625
c-5.08691 0 -9.84961 2.50879 -12.7285 6.7168z" />
    <glyph glyph-name="bracketleft" unicode="[" horiz-adv-x="292" 
d="M226.341 -182.493c8.5127 -0.119141 15.3154 -7.11621 15.1963 -15.625c-0.126953 -8.5127 -7.18652 -15.2559 -15.6328 -15.1943c-62.4639 0.882812 -101.669 0.817383 -151.378 -1.90723c-2.48926 -1.73047 -5.49902 -2.75586 -8.75879 -2.75977h-0.015625
c-8.50879 0 -15.4062 6.88965 -15.4141 15.3984c-0.338867 344.816 -0.338867 601.609 -0.338867 1027.04c0 8.5127 6.90137 15.4141 15.4141 15.4141c0.782227 0 1.5293 -0.119141 2.28027 -0.230469c0.435547 0.0615234 0.847656 0.176758 1.29492 0.204102
c52.4717 2.98242 92.54 3.0752 157.351 2.1582c8.5127 -0.119141 15.3145 -7.11719 15.1953 -15.6299c-0.126953 -8.5127 -7.18652 -15.3066 -15.6328 -15.1953c-59.8057 0.839844 -98.2705 0.824219 -145.074 -1.56836c0 -408.983 0.00390625 -662.062 0.320312 -993.618
c46.7695 2.33887 85.5078 2.35449 145.193 1.51074z" />
    <glyph glyph-name="backslash" unicode="\" horiz-adv-x="405" 
d="M354.083 -162.124c3.32129 -7.8418 -0.341797 -16.8857 -8.17969 -20.207c-1.96094 -0.832031 -3.99512 -1.22461 -6.00293 -1.22461c-6.00781 0 -11.7148 3.5293 -14.2041 9.40625c-55.9014 131.979 -231.329 828.452 -275.247 1007.74
c-2.02734 8.26953 3.03223 16.6123 11.3018 18.6396c8.30762 2.03027 16.6152 -3.03711 18.6387 -11.3027c43.7939 -178.78 218.593 -872.964 273.693 -1003.05z" />
    <glyph glyph-name="bracketright" unicode="]" horiz-adv-x="292" 
d="M226.123 839.875c8.5127 0 15.4121 -6.90234 15.4199 -15.4219c0 -425.434 0 -682.227 -0.342773 -1027.04c-0.0078125 -8.50879 -6.90918 -15.3984 -15.4141 -15.3984h-0.015625c-3.25977 0.00390625 -6.26953 1.0293 -8.75879 2.75977
c-49.7129 2.72461 -88.9141 2.79004 -151.374 1.90723h-0.223633c-8.41211 -0.00390625 -15.29 6.75488 -15.4092 15.1943c-0.123047 8.5127 6.68164 15.5107 15.1943 15.6299c59.6934 0.84375 98.4238 0.828125 145.186 -1.51074
c0.320312 331.557 0.324219 584.635 0.324219 993.618c-46.7959 2.39258 -85.2607 2.4082 -145.073 1.56836h-0.223633c-8.41211 0 -15.29 6.75879 -15.4092 15.1982c-0.123047 8.5127 6.68164 15.5107 15.1943 15.6299c64.8027 0.916992 104.875 0.824219 157.351 -2.1582
c0.447266 -0.0234375 0.859375 -0.142578 1.29492 -0.204102c0.750977 0.111328 1.49805 0.230469 2.28027 0.230469z" />
    <glyph glyph-name="asciicircum" unicode="^" horiz-adv-x="329" 
d="M278.877 436.977c2.28516 -8.2002 -2.50977 -16.7021 -10.7139 -18.9912c-1.38379 -0.385742 -2.77832 -0.570312 -4.14648 -0.570312c-6.74707 0 -12.9395 4.46191 -14.8389 11.2783c-47.1045 168.946 -70.876 242.485 -82.6865 274.457
c-23.7061 -61.1035 -74.7715 -213.406 -85.9229 -273.146c-1.56445 -8.37012 -9.61035 -13.877 -17.9805 -12.3242c-8.37012 1.56055 -13.8848 9.61035 -12.3242 17.9805c7.38281 39.5361 32.334 120.181 53.2197 182.464c11.3213 33.7598 22.3965 65.0615 31.1865 88.1396
c14.9629 39.2969 18.9473 47.0195 31.0049 47.2627c13.1904 0.24707 19.2676 -10.6348 31.9258 -45.7744c7.2793 -20.1992 16.6318 -49.0225 27.7949 -85.6689c14.832 -48.6729 32.3262 -109.222 53.4814 -185.107z" />
    <glyph glyph-name="underscore" unicode="_" horiz-adv-x="447" 
d="M381.606 -4.22266c8.5127 -0.0966797 15.3359 -7.0791 15.2354 -15.5879c-0.0966797 -8.4502 -6.97852 -15.2363 -15.4102 -15.2363h-0.180664c-121.934 1.39453 -170.795 1.39453 -315.838 1.39453c-8.5127 0 -15.4141 6.90137 -15.4141 15.4141
s6.90137 15.4141 15.4141 15.4141c145.174 0 194.082 0 316.193 -1.39844z" />
    <glyph glyph-name="grave" unicode="`" horiz-adv-x="194" 
d="M142.569 540.595c2.93652 -7.99219 -1.16504 -16.8457 -9.14941 -19.7822c-1.75293 -0.643555 -3.55273 -0.948242 -5.31738 -0.948242c-6.27734 0 -12.1768 3.86523 -14.4697 10.0996c-29.1318 79.2842 -50.4834 163.366 -63.4619 249.91
c-1.25977 8.41992 4.53613 16.2656 12.96 17.5293c8.39258 1.25586 16.2656 -4.54004 17.5293 -12.96c12.666 -84.4824 33.498 -166.525 61.9092 -243.849z" />
    <glyph glyph-name="a" unicode="a" horiz-adv-x="367" 
d="M191.65 701.08c104.778 7.16699 134.422 -278.082 157.747 -596.468c3.05566 -41.7559 5.69922 -77.8164 8.29688 -103.025c0.871094 -8.46973 -5.28711 -16.0381 -13.7529 -16.9131c-0.535156 -0.0537109 -1.07031 -0.0810547 -1.59863 -0.0810547
c-7.80273 -0.00390625 -14.4961 5.90332 -15.3135 13.834c-2.64355 25.6602 -5.29883 61.9326 -8.37793 103.931c-7.83008 106.905 -18.5576 253.316 -39.5244 372.218c-1.12891 6.38867 -2.26562 12.5469 -3.40625 18.5312
c-22.373 -0.554688 -39.7979 -1.05176 -54.4102 -1.47168c-30.5889 -0.878906 -49.2471 -1.41113 -76.5371 -1.41113c-12.4199 0 -26.6621 0.111328 -44.5918 0.350586c-2.60059 -11.3369 -5.18262 -23.3477 -7.7373 -36.126
c-24.6426 -123.225 -38.0449 -270.383 -46.9121 -367.763c-3.51465 -38.6191 -6.29297 -69.123 -8.83984 -88.0977c-1.13281 -8.43555 -8.87402 -14.3662 -17.3281 -13.2256c-8.43555 1.12891 -14.3584 8.88965 -13.2256 17.3252
c2.45898 18.3232 5.20996 48.5381 8.69336 86.791c26.5811 291.901 64.3604 603.964 176.818 611.602zM269.435 523.781c-29.4863 133.757 -62.0664 147.47 -75.7002 146.541c-19.0127 -1.29102 -53.2773 -23.918 -86.0273 -149.02
c51.2891 -0.616211 70.5674 -0.0693359 112.728 1.14062c13.418 0.385742 29.2051 0.836914 49 1.33789z" />
    <glyph glyph-name="a" unicode="&#xe5;" horiz-adv-x="367" 
d="M191.65 701.08c104.778 7.16699 134.422 -278.082 157.747 -596.468c3.05566 -41.7559 5.69922 -77.8164 8.29688 -103.025c0.871094 -8.46973 -5.28711 -16.0381 -13.7529 -16.9131c-0.535156 -0.0537109 -1.07031 -0.0810547 -1.59863 -0.0810547
c-7.80273 -0.00390625 -14.4961 5.90332 -15.3135 13.834c-2.64355 25.6602 -5.29883 61.9326 -8.37793 103.931c-7.83008 106.905 -18.5576 253.316 -39.5244 372.218c-1.12891 6.38867 -2.26562 12.5469 -3.40625 18.5312
c-22.373 -0.554688 -39.7979 -1.05176 -54.4102 -1.47168c-30.5889 -0.878906 -49.2471 -1.41113 -76.5371 -1.41113c-12.4199 0 -26.6621 0.111328 -44.5918 0.350586c-2.60059 -11.3369 -5.18262 -23.3477 -7.7373 -36.126
c-24.6426 -123.225 -38.0449 -270.383 -46.9121 -367.763c-3.51465 -38.6191 -6.29297 -69.123 -8.83984 -88.0977c-1.13281 -8.43555 -8.87402 -14.3662 -17.3281 -13.2256c-8.43555 1.12891 -14.3584 8.88965 -13.2256 17.3252
c2.45898 18.3232 5.20996 48.5381 8.69336 86.791c26.5811 291.901 64.3604 603.964 176.818 611.602zM269.435 523.781c-29.4863 133.757 -62.0664 147.47 -75.7002 146.541c-19.0127 -1.29102 -53.2773 -23.918 -86.0273 -149.02
c51.2891 -0.616211 70.5674 -0.0693359 112.728 1.14062c13.418 0.385742 29.2051 0.836914 49 1.33789z" />
    <glyph glyph-name="a" unicode="&#xe4;" horiz-adv-x="367" 
d="M191.65 701.08c104.778 7.16699 134.422 -278.082 157.747 -596.468c3.05566 -41.7559 5.69922 -77.8164 8.29688 -103.025c0.871094 -8.46973 -5.28711 -16.0381 -13.7529 -16.9131c-0.535156 -0.0537109 -1.07031 -0.0810547 -1.59863 -0.0810547
c-7.80273 -0.00390625 -14.4961 5.90332 -15.3135 13.834c-2.64355 25.6602 -5.29883 61.9326 -8.37793 103.931c-7.83008 106.905 -18.5576 253.316 -39.5244 372.218c-1.12891 6.38867 -2.26562 12.5469 -3.40625 18.5312
c-22.373 -0.554688 -39.7979 -1.05176 -54.4102 -1.47168c-30.5889 -0.878906 -49.2471 -1.41113 -76.5371 -1.41113c-12.4199 0 -26.6621 0.111328 -44.5918 0.350586c-2.60059 -11.3369 -5.18262 -23.3477 -7.7373 -36.126
c-24.6426 -123.225 -38.0449 -270.383 -46.9121 -367.763c-3.51465 -38.6191 -6.29297 -69.123 -8.83984 -88.0977c-1.13281 -8.43555 -8.87402 -14.3662 -17.3281 -13.2256c-8.43555 1.12891 -14.3584 8.88965 -13.2256 17.3252
c2.45898 18.3232 5.20996 48.5381 8.69336 86.791c26.5811 291.901 64.3604 603.964 176.818 611.602zM269.435 523.781c-29.4863 133.757 -62.0664 147.47 -75.7002 146.541c-19.0127 -1.29102 -53.2773 -23.918 -86.0273 -149.02
c51.2891 -0.616211 70.5674 -0.0693359 112.728 1.14062c13.418 0.385742 29.2051 0.836914 49 1.33789z" />
    <glyph glyph-name="a" unicode="&#xe3;" horiz-adv-x="367" 
d="M191.65 701.08c104.778 7.16699 134.422 -278.082 157.747 -596.468c3.05566 -41.7559 5.69922 -77.8164 8.29688 -103.025c0.871094 -8.46973 -5.28711 -16.0381 -13.7529 -16.9131c-0.535156 -0.0537109 -1.07031 -0.0810547 -1.59863 -0.0810547
c-7.80273 -0.00390625 -14.4961 5.90332 -15.3135 13.834c-2.64355 25.6602 -5.29883 61.9326 -8.37793 103.931c-7.83008 106.905 -18.5576 253.316 -39.5244 372.218c-1.12891 6.38867 -2.26562 12.5469 -3.40625 18.5312
c-22.373 -0.554688 -39.7979 -1.05176 -54.4102 -1.47168c-30.5889 -0.878906 -49.2471 -1.41113 -76.5371 -1.41113c-12.4199 0 -26.6621 0.111328 -44.5918 0.350586c-2.60059 -11.3369 -5.18262 -23.3477 -7.7373 -36.126
c-24.6426 -123.225 -38.0449 -270.383 -46.9121 -367.763c-3.51465 -38.6191 -6.29297 -69.123 -8.83984 -88.0977c-1.13281 -8.43555 -8.87402 -14.3662 -17.3281 -13.2256c-8.43555 1.12891 -14.3584 8.88965 -13.2256 17.3252
c2.45898 18.3232 5.20996 48.5381 8.69336 86.791c26.5811 291.901 64.3604 603.964 176.818 611.602zM269.435 523.781c-29.4863 133.757 -62.0664 147.47 -75.7002 146.541c-19.0127 -1.29102 -53.2773 -23.918 -86.0273 -149.02
c51.2891 -0.616211 70.5674 -0.0693359 112.728 1.14062c13.418 0.385742 29.2051 0.836914 49 1.33789z" />
    <glyph glyph-name="a" unicode="&#xe2;" horiz-adv-x="367" 
d="M191.65 701.08c104.778 7.16699 134.422 -278.082 157.747 -596.468c3.05566 -41.7559 5.69922 -77.8164 8.29688 -103.025c0.871094 -8.46973 -5.28711 -16.0381 -13.7529 -16.9131c-0.535156 -0.0537109 -1.07031 -0.0810547 -1.59863 -0.0810547
c-7.80273 -0.00390625 -14.4961 5.90332 -15.3135 13.834c-2.64355 25.6602 -5.29883 61.9326 -8.37793 103.931c-7.83008 106.905 -18.5576 253.316 -39.5244 372.218c-1.12891 6.38867 -2.26562 12.5469 -3.40625 18.5312
c-22.373 -0.554688 -39.7979 -1.05176 -54.4102 -1.47168c-30.5889 -0.878906 -49.2471 -1.41113 -76.5371 -1.41113c-12.4199 0 -26.6621 0.111328 -44.5918 0.350586c-2.60059 -11.3369 -5.18262 -23.3477 -7.7373 -36.126
c-24.6426 -123.225 -38.0449 -270.383 -46.9121 -367.763c-3.51465 -38.6191 -6.29297 -69.123 -8.83984 -88.0977c-1.13281 -8.43555 -8.87402 -14.3662 -17.3281 -13.2256c-8.43555 1.12891 -14.3584 8.88965 -13.2256 17.3252
c2.45898 18.3232 5.20996 48.5381 8.69336 86.791c26.5811 291.901 64.3604 603.964 176.818 611.602zM269.435 523.781c-29.4863 133.757 -62.0664 147.47 -75.7002 146.541c-19.0127 -1.29102 -53.2773 -23.918 -86.0273 -149.02
c51.2891 -0.616211 70.5674 -0.0693359 112.728 1.14062c13.418 0.385742 29.2051 0.836914 49 1.33789z" />
    <glyph glyph-name="a" unicode="&#xe1;" horiz-adv-x="367" 
d="M191.65 701.08c104.778 7.16699 134.422 -278.082 157.747 -596.468c3.05566 -41.7559 5.69922 -77.8164 8.29688 -103.025c0.871094 -8.46973 -5.28711 -16.0381 -13.7529 -16.9131c-0.535156 -0.0537109 -1.07031 -0.0810547 -1.59863 -0.0810547
c-7.80273 -0.00390625 -14.4961 5.90332 -15.3135 13.834c-2.64355 25.6602 -5.29883 61.9326 -8.37793 103.931c-7.83008 106.905 -18.5576 253.316 -39.5244 372.218c-1.12891 6.38867 -2.26562 12.5469 -3.40625 18.5312
c-22.373 -0.554688 -39.7979 -1.05176 -54.4102 -1.47168c-30.5889 -0.878906 -49.2471 -1.41113 -76.5371 -1.41113c-12.4199 0 -26.6621 0.111328 -44.5918 0.350586c-2.60059 -11.3369 -5.18262 -23.3477 -7.7373 -36.126
c-24.6426 -123.225 -38.0449 -270.383 -46.9121 -367.763c-3.51465 -38.6191 -6.29297 -69.123 -8.83984 -88.0977c-1.13281 -8.43555 -8.87402 -14.3662 -17.3281 -13.2256c-8.43555 1.12891 -14.3584 8.88965 -13.2256 17.3252
c2.45898 18.3232 5.20996 48.5381 8.69336 86.791c26.5811 291.901 64.3604 603.964 176.818 611.602zM269.435 523.781c-29.4863 133.757 -62.0664 147.47 -75.7002 146.541c-19.0127 -1.29102 -53.2773 -23.918 -86.0273 -149.02
c51.2891 -0.616211 70.5674 -0.0693359 112.728 1.14062c13.418 0.385742 29.2051 0.836914 49 1.33789z" />
    <glyph glyph-name="b" unicode="b" horiz-adv-x="324" 
d="M58.8545 700.533c47.3545 3.19434 145.909 9.82715 192.655 -35.0342c16.8818 -16.2041 25.1055 -37.1895 24.4463 -62.375c-1.3877 -52.8037 -45.2666 -79.6309 -94.2627 -93.665c23.0088 -8.03027 45.2773 -20.6924 64.8262 -40.7188
c45.8057 -46.915 66.7568 -123.533 64.0596 -234.23c-1.93848 -79.4424 -11.9492 -142.904 -54.499 -194.405c-36.0566 -43.6396 -91.5078 -65.6348 -165.201 -65.6348c-14.3809 0 -29.4482 0.835938 -45.209 2.51172c-6.04199 0.643555 -10.8398 4.7207 -12.7979 10.0654
c-1.79199 2.52051 -2.87109 5.58008 -2.87109 8.90918c0 285.173 0 457.302 0.338867 688.438c0.015625 8.5127 6.99023 15.3945 15.4365 15.3906c0.142578 0 0.273438 -0.0380859 0.416016 -0.0419922c0.0654297 0.00390625 0.126953 0.0234375 0.196289 0.0273438
c3.19824 0.134766 7.42188 0.423828 12.4658 0.762695zM279.748 235.26c2.45508 100.54 -16.1504 171.847 -55.2979 211.941c-44.2646 45.3438 -107.638 45.3086 -158.588 45.3008h-3.03223c-0.647461 0 -1.26367 0.111328 -1.8877 0.188477
c-0.115234 -146.962 -0.119141 -289.77 -0.119141 -486.109c79.3926 -6.28516 137.094 11.5332 171.481 53.1543c36.916 44.6807 45.6631 102.482 47.4434 175.524zM245.132 603.932c0.427734 16.377 -4.46875 29.2422 -14.9736 39.3232
c-36.8428 35.3594 -132.67 28.9785 -169.012 26.5312c-0.0732422 -50.7578 -0.130859 -98.8135 -0.172852 -145.999c1.60645 0.0966797 3.28223 0.193359 5.10449 0.297852c48.4727 2.75488 177.224 10.0684 179.054 79.8467z" />
    <glyph glyph-name="c" unicode="c" horiz-adv-x="334" 
d="M75.5791 616.309c22.8203 47.3428 48.1162 75.7559 77.3408 86.8613c36.8506 14.0068 76.9531 4.17285 104.644 -25.6641c27.0244 -29.1201 47.8525 -85.3535 58.6465 -158.342c1.24512 -8.41992 -4.56934 -16.2578 -12.9932 -17.5029
c-8.41211 -1.24805 -16.2539 4.57031 -17.502 12.9941c-9.74512 65.9248 -28.2451 117.638 -50.7451 141.884c-18.9746 20.4463 -46.2148 27.2705 -71.0967 17.8184c-21.1943 -8.05371 -41.5596 -32.0879 -60.5186 -71.4316
c-40.7041 -84.4521 -60.4727 -195.346 -57.1699 -320.698c1.55273 -58.957 7.66797 -105.232 19.2471 -145.632c14.377 -50.1484 53.8936 -134.276 110.689 -131.336c70.5869 3.60645 101.893 57.7012 119.634 206.729c1.00977 8.4502 8.66309 14.4922 17.1289 13.4824
c8.4541 -1.00586 14.4922 -8.67383 13.4863 -17.1279c-13.7178 -115.194 -36.4912 -228.143 -148.676 -233.873c-1.49121 -0.0771484 -2.97852 -0.115234 -4.4502 -0.115234c-68.8145 0 -116.921 82.1318 -137.448 153.744
c-12.3154 42.9697 -18.8086 91.6846 -20.4307 153.316c-3.43359 130.234 17.3906 246.041 60.2139 334.894z" />
    <glyph glyph-name="d" unicode="d" horiz-adv-x="324" 
d="M34.8438 -18.1162c-3.07129 3.06348 -4.88867 7.34473 -4.5498 12.0039c0.00390625 0.0849609 0.0351562 0.158203 0.0429688 0.243164c-0.338867 230.377 -0.338867 391.389 -0.338867 683.174c0 1.38379 0.243164 2.69434 0.582031 3.96973
c-0.0498047 0.269531 -0.150391 0.516602 -0.188477 0.790039c-1.14062 8.43555 4.77051 16.2002 13.2061 17.3447c97.4727 13.2139 168.776 -13.7871 211.896 -80.2549c41.7207 -64.3135 51.5391 -143.922 53.4502 -243.664
c3.15234 -164.669 -29.1934 -280.279 -96.1309 -343.614c-38.8584 -36.7617 -88.0742 -55.3271 -146.527 -55.3271c-7.12109 0 -14.373 0.273438 -21.7637 0.824219c-0.374023 0.03125 -0.716797 0.138672 -1.0791 0.192383
c-0.416016 0.0615234 -0.832031 0.123047 -1.23633 0.219727c-0.674805 0.154297 -1.31836 0.362305 -1.9541 0.605469c-0.257812 0.100586 -0.511719 0.189453 -0.761719 0.300781c-0.740234 0.327148 -1.4375 0.712891 -2.1123 1.14453
c-0.115234 0.0771484 -0.238281 0.150391 -0.353516 0.231445c-0.750977 0.516602 -1.44434 1.09082 -2.0918 1.72656c-0.0273438 0.03125 -0.0585938 0.0585938 -0.0898438 0.0898438zM229.637 602.382c-34.6729 53.4473 -90.0088 75.7119 -168.8 67.9707
c0 -281.717 0.00390625 -441.384 0.320312 -662.863c52.6377 -1.04004 96.4932 14.6357 130.473 46.7852c60.376 57.123 89.4775 165 86.499 320.632c-1.80762 94.459 -10.748 169.293 -48.4922 227.476z" />
    <glyph glyph-name="e" unicode="e" horiz-adv-x="334" 
d="M152.917 703.173c36.8506 14.0068 76.9531 4.1748 104.651 -25.6621c29.7793 -32.0879 51.9824 -94.9062 59.3887 -168.037c0.439453 -4.33105 -0.974609 -8.64258 -3.8877 -11.876s-7.05957 -5.08301 -11.4141 -5.09082
c-1.9502 -0.00390625 -179.709 -0.34668 -236.323 -0.0849609c-14.6162 -62.8994 -21.1592 -133.868 -19.1475 -210.193c1.55273 -58.957 7.66797 -105.232 19.2471 -145.632c14.377 -50.1484 53.8672 -134.276 110.689 -131.336
c70.5869 3.60645 101.893 57.7012 119.634 206.729c1.00977 8.4502 8.68164 14.4922 17.1279 13.4824c8.4541 -1.00586 14.4922 -8.67383 13.4863 -17.1279c-13.7178 -115.194 -36.4912 -228.143 -148.676 -233.873
c-1.49121 -0.0771484 -2.97852 -0.115234 -4.4502 -0.115234c-68.8145 0 -116.921 82.1318 -137.448 153.744c-12.3154 42.9697 -18.8086 91.6846 -20.4307 153.316c-3.43359 130.234 17.3906 246.041 60.2139 334.894c22.8203 47.3428 48.1182 75.7578 77.3389 86.8633z
M73.3086 523.216c51.0195 -0.162109 166.998 0.0126953 210.958 0.0859375c-9.42969 68.8877 -31.1592 113.684 -49.3047 133.236c-18.9746 20.4424 -46.207 27.2705 -71.0967 17.8184c-21.1943 -8.05371 -41.5596 -32.0879 -60.5186 -71.4316
c-11.7842 -24.4463 -21.8145 -51.1201 -30.0381 -79.709z" />
    <glyph glyph-name="e" unicode="&#xeb;" horiz-adv-x="334" 
d="M152.917 703.173c36.8506 14.0068 76.9531 4.1748 104.651 -25.6621c29.7793 -32.0879 51.9824 -94.9062 59.3887 -168.037c0.439453 -4.33105 -0.974609 -8.64258 -3.8877 -11.876s-7.05957 -5.08301 -11.4141 -5.09082
c-1.9502 -0.00390625 -179.709 -0.34668 -236.323 -0.0849609c-14.6162 -62.8994 -21.1592 -133.868 -19.1475 -210.193c1.55273 -58.957 7.66797 -105.232 19.2471 -145.632c14.377 -50.1484 53.8672 -134.276 110.689 -131.336
c70.5869 3.60645 101.893 57.7012 119.634 206.729c1.00977 8.4502 8.68164 14.4922 17.1279 13.4824c8.4541 -1.00586 14.4922 -8.67383 13.4863 -17.1279c-13.7178 -115.194 -36.4912 -228.143 -148.676 -233.873
c-1.49121 -0.0771484 -2.97852 -0.115234 -4.4502 -0.115234c-68.8145 0 -116.921 82.1318 -137.448 153.744c-12.3154 42.9697 -18.8086 91.6846 -20.4307 153.316c-3.43359 130.234 17.3906 246.041 60.2139 334.894c22.8203 47.3428 48.1182 75.7578 77.3389 86.8633z
M73.3086 523.216c51.0195 -0.162109 166.998 0.0126953 210.958 0.0859375c-9.42969 68.8877 -31.1592 113.684 -49.3047 133.236c-18.9746 20.4424 -46.207 27.2705 -71.0967 17.8184c-21.1943 -8.05371 -41.5596 -32.0879 -60.5186 -71.4316
c-11.7842 -24.4463 -21.8145 -51.1201 -30.0381 -79.709z" />
    <glyph glyph-name="e" unicode="&#xea;" horiz-adv-x="334" 
d="M152.917 703.173c36.8506 14.0068 76.9531 4.1748 104.651 -25.6621c29.7793 -32.0879 51.9824 -94.9062 59.3887 -168.037c0.439453 -4.33105 -0.974609 -8.64258 -3.8877 -11.876s-7.05957 -5.08301 -11.4141 -5.09082
c-1.9502 -0.00390625 -179.709 -0.34668 -236.323 -0.0849609c-14.6162 -62.8994 -21.1592 -133.868 -19.1475 -210.193c1.55273 -58.957 7.66797 -105.232 19.2471 -145.632c14.377 -50.1484 53.8672 -134.276 110.689 -131.336
c70.5869 3.60645 101.893 57.7012 119.634 206.729c1.00977 8.4502 8.68164 14.4922 17.1279 13.4824c8.4541 -1.00586 14.4922 -8.67383 13.4863 -17.1279c-13.7178 -115.194 -36.4912 -228.143 -148.676 -233.873
c-1.49121 -0.0771484 -2.97852 -0.115234 -4.4502 -0.115234c-68.8145 0 -116.921 82.1318 -137.448 153.744c-12.3154 42.9697 -18.8086 91.6846 -20.4307 153.316c-3.43359 130.234 17.3906 246.041 60.2139 334.894c22.8203 47.3428 48.1182 75.7578 77.3389 86.8633z
M73.3086 523.216c51.0195 -0.162109 166.998 0.0126953 210.958 0.0859375c-9.42969 68.8877 -31.1592 113.684 -49.3047 133.236c-18.9746 20.4424 -46.207 27.2705 -71.0967 17.8184c-21.1943 -8.05371 -41.5596 -32.0879 -60.5186 -71.4316
c-11.7842 -24.4463 -21.8145 -51.1201 -30.0381 -79.709z" />
    <glyph glyph-name="e" unicode="&#xe9;" horiz-adv-x="334" 
d="M152.917 703.173c36.8506 14.0068 76.9531 4.1748 104.651 -25.6621c29.7793 -32.0879 51.9824 -94.9062 59.3887 -168.037c0.439453 -4.33105 -0.974609 -8.64258 -3.8877 -11.876s-7.05957 -5.08301 -11.4141 -5.09082
c-1.9502 -0.00390625 -179.709 -0.34668 -236.323 -0.0849609c-14.6162 -62.8994 -21.1592 -133.868 -19.1475 -210.193c1.55273 -58.957 7.66797 -105.232 19.2471 -145.632c14.377 -50.1484 53.8672 -134.276 110.689 -131.336
c70.5869 3.60645 101.893 57.7012 119.634 206.729c1.00977 8.4502 8.68164 14.4922 17.1279 13.4824c8.4541 -1.00586 14.4922 -8.67383 13.4863 -17.1279c-13.7178 -115.194 -36.4912 -228.143 -148.676 -233.873
c-1.49121 -0.0771484 -2.97852 -0.115234 -4.4502 -0.115234c-68.8145 0 -116.921 82.1318 -137.448 153.744c-12.3154 42.9697 -18.8086 91.6846 -20.4307 153.316c-3.43359 130.234 17.3906 246.041 60.2139 334.894c22.8203 47.3428 48.1182 75.7578 77.3389 86.8633z
M73.3086 523.216c51.0195 -0.162109 166.998 0.0126953 210.958 0.0859375c-9.42969 68.8877 -31.1592 113.684 -49.3047 133.236c-18.9746 20.4424 -46.207 27.2705 -71.0967 17.8184c-21.1943 -8.05371 -41.5596 -32.0879 -60.5186 -71.4316
c-11.7842 -24.4463 -21.8145 -51.1201 -30.0381 -79.709z" />
    <glyph glyph-name="f" unicode="f" horiz-adv-x="315" 
d="M301.294 696.56c8.5127 0.455078 15.7529 -6.06934 16.2002 -14.582c0.451172 -8.50098 -6.07617 -15.7568 -14.5771 -16.208c-22.1992 -1.17578 -46.1133 -1.57227 -70.71 -1.57227c-26.1875 0 -53.1533 0.451172 -79.6494 0.894531
c-30.6152 0.512695 -59.7666 0.994141 -86.9102 0.813477c-1.21387 -29.4209 -2.88281 -60.8496 -4.63965 -93.8623c-0.782227 -14.7549 -1.58789 -29.9531 -2.37402 -45.417c32.292 -1.0791 90.8799 -1.46484 138.982 -1.78125
c12.1729 -0.0810547 23.5479 -0.154297 33.4707 -0.235352c8.5127 -0.0693359 15.3604 -7.02441 15.291 -15.5371c-0.0732422 -8.46973 -6.95898 -15.29 -15.4131 -15.29h-0.125977c-9.90723 0.0810547 -21.2676 0.154297 -33.4248 0.235352
c-27.0977 0.176758 -57.5088 0.376953 -84.791 0.711914c52.9961 -39.1816 89.0449 -103.584 108.046 -144.712c38.0527 -82.3672 57.6201 -177.481 51.0615 -248.23c-6.53516 -70.5645 -37.9287 -112.162 -88.3896 -117.133
c-4.50879 -0.443359 -8.92871 -0.666992 -13.2637 -0.666992c-29.1162 0 -54.3174 10.0039 -75.0566 29.8301c-90.001 86.0352 -76.0244 348.758 -64.7959 559.86c2.0498 38.5107 3.98438 74.8867 5.20215 108.246c0.3125 8.50879 7.38379 15.2021 15.9688 14.8438
c0.427734 -0.0117188 0.824219 -0.119141 1.24023 -0.168945c31.1201 0.473633 64.7988 -0.0849609 100.443 -0.678711c50.8535 -0.851562 103.449 -1.73047 148.215 0.639648zM241.034 104.641c12.5273 135.201 -75.4766 345.711 -184.162 385.891
c-8.29297 -180.514 -9.5957 -388.426 59.4463 -454.424c17.2783 -16.5117 38.2139 -23.3096 63.9971 -20.7666c43.7441 4.30859 57.166 50.9385 60.7188 89.2998z" />
    <glyph glyph-name="g" unicode="g" horiz-adv-x="332" 
d="M152.921 703.173c36.8545 14.0068 76.9551 4.17383 104.642 -25.667c21.7715 -23.46 38.8379 -61.1426 52.1748 -115.198c2.03809 -8.26562 -3.00977 -16.6201 -11.2754 -18.6582c-8.27344 -2.03418 -16.6201 3.00977 -18.6582 11.2754
c-11.8799 48.168 -26.9658 82.3555 -44.8379 101.611c-18.9746 20.4463 -46.2188 27.2705 -71.0967 17.8184c-21.1943 -8.05371 -41.5557 -32.0879 -60.5225 -71.4316c-40.7041 -84.4482 -60.4688 -195.346 -57.1699 -320.698
c1.55664 -58.9688 7.67188 -105.244 19.251 -145.632c14.8047 -51.6553 54.6104 -137.456 109.795 -131.41c48.1143 5.27148 99.1797 70.9492 108.725 235.761c0.354492 16.8818 0.708984 31.3398 1.04785 41.9248c-15.0049 0.334961 -24.4766 0.168945 -37.251 -0.0546875
c-10.3848 -0.18457 -23.3096 -0.412109 -43.0508 -0.412109c-8.5127 0 -15.4141 6.90137 -15.4141 15.4141s6.90137 15.4141 15.4141 15.4141c19.4639 0 32.2383 0.227539 42.5039 0.408203c15.834 0.277344 27.4902 0.481445 51.127 -0.308594
c0.516602 0.0888672 1.04883 0.0849609 1.57715 0.123047c0.354492 0.0273438 0.697266 0.108398 1.05957 0.108398c0.0693359 0 0.134766 -0.0195312 0.204102 -0.0195312c0.52832 -0.0078125 1.06348 -0.100586 1.59863 -0.162109
c0.516602 -0.0576172 1.04102 -0.0927734 1.54199 -0.204102c0.0693359 -0.015625 0.138672 -0.0117188 0.208008 -0.0273438c0.473633 -0.111328 0.897461 -0.303711 1.34863 -0.454102c0.416016 -0.138672 0.84375 -0.246094 1.24414 -0.419922
c0.635742 -0.277344 1.22168 -0.62793 1.80371 -0.978516c0.231445 -0.142578 0.485352 -0.24707 0.712891 -0.401367c0.801758 -0.546875 1.5498 -1.15918 2.22754 -1.83691c0.0419922 -0.0458984 0.0771484 -0.0996094 0.119141 -0.141602
c0.620117 -0.635742 1.18652 -1.31738 1.6875 -2.0459c0.196289 -0.285156 0.342773 -0.601562 0.520508 -0.902344c0.308594 -0.520508 0.617188 -1.0332 0.864258 -1.58789c0.158203 -0.354492 0.265625 -0.732422 0.396484 -1.10254
c0.192383 -0.546875 0.384766 -1.09375 0.515625 -1.66406c0.0849609 -0.374023 0.130859 -0.759766 0.188477 -1.1416v-0.00390625c0.0078125 -0.0537109 0.0195312 -0.107422 0.0273438 -0.161133c0.0810547 -0.546875 0.138672 -1.09375 0.158203 -1.65625
c0.00390625 -0.169922 0.0498047 -0.328125 0.0498047 -0.498047c0 -18.2959 -0.46582 -35.9326 -1.375 -52.8955c-1.72656 -83.3574 -4.25098 -240.242 -2.72461 -263.217c0.5625 -8.49316 -5.86523 -15.8379 -14.3623 -16.4004
c-0.34668 -0.0234375 -0.693359 -0.0351562 -1.03613 -0.0351562c-8.0498 0 -14.8242 6.25 -15.3633 14.3965c-0.535156 8.06934 -0.454102 45.2012 -0.0302734 91.543c-23.6982 -58.0215 -58.7256 -92.1592 -102.897 -96.999
c-3.20996 -0.354492 -6.37402 -0.524414 -9.46875 -0.524414c-84.7334 0 -125.749 127.648 -133.325 154.079c-12.3154 42.958 -18.8047 91.6768 -20.4307 153.316c-3.43359 130.238 17.3906 246.042 60.2139 334.895c22.8242 47.3428 48.1221 75.7578 77.3428 86.8633z" />
    <glyph glyph-name="h" unicode="h" horiz-adv-x="342" 
d="M280.593 -7.26855c-0.223633 177.03 -0.277344 319.497 -0.289062 504.597c-50.8271 -2.41992 -93.2998 -2.64355 -138.115 -2.87891c-22.8545 -0.119141 -46.4912 -0.242188 -72.4824 -0.654297h-0.250977c-3.19434 0 -6.15723 0.978516 -8.62305 2.65137
c0.015625 -184.656 0.0732422 -326.94 0.334961 -503.666c0.015625 -8.5127 -6.87793 -15.4258 -15.3906 -15.4375h-0.0234375c-8.50488 0 -15.4023 6.88574 -15.4141 15.3906c-0.338867 231.137 -0.338867 403.266 -0.338867 688.438
c0 8.5127 6.90137 15.4141 15.4141 15.4141s15.4141 -6.90137 15.4141 -15.4141c0 -57.1738 0 -109.746 0.00390625 -159.217c2.39648 1.62598 5.27148 2.6123 8.38477 2.66211c26.1572 0.416016 49.875 0.539062 72.8145 0.658203
c44.9043 0.231445 87.4385 0.458984 138.272 2.91406c-0.00390625 47.6475 -0.00390625 98.2158 -0.00390625 152.98c0 8.5127 6.90137 15.4141 15.4141 15.4141s15.4141 -6.90137 15.4141 -15.4141c0 -285.161 0 -457.282 0.292969 -688.399
c0.0117188 -8.5127 -6.88184 -15.4219 -15.3945 -15.4336h-0.0195312c-8.50488 0 -15.4023 6.88574 -15.4141 15.3945z" />
    <glyph glyph-name="i" unicode="i" horiz-adv-x="92" 
d="M45.4141 696.583c8.5127 0 15.4141 -6.90137 15.4141 -15.4102c0 -285.161 0 -457.282 0.338867 -688.396c0.015625 -8.5127 -6.87793 -15.4258 -15.3906 -15.4375h-0.0234375c-8.50488 0 -15.4023 6.88574 -15.4141 15.3906
c-0.338867 231.137 -0.338867 403.266 -0.338867 688.438c0 8.5127 6.90137 15.4141 15.4141 15.4141z" />
    <glyph glyph-name="i" unicode="&#xef;" horiz-adv-x="92" 
d="M45.4141 696.583c8.5127 0 15.4141 -6.90137 15.4141 -15.4102c0 -285.161 0 -457.282 0.338867 -688.396c0.015625 -8.5127 -6.87793 -15.4258 -15.3906 -15.4375h-0.0234375c-8.50488 0 -15.4023 6.88574 -15.4141 15.3906
c-0.338867 231.137 -0.338867 403.266 -0.338867 688.438c0 8.5127 6.90137 15.4141 15.4141 15.4141z" />
    <glyph glyph-name="i" unicode="&#xee;" horiz-adv-x="92" 
d="M45.4141 696.583c8.5127 0 15.4141 -6.90137 15.4141 -15.4102c0 -285.161 0 -457.282 0.338867 -688.396c0.015625 -8.5127 -6.87793 -15.4258 -15.3906 -15.4375h-0.0234375c-8.50488 0 -15.4023 6.88574 -15.4141 15.3906
c-0.338867 231.137 -0.338867 403.266 -0.338867 688.438c0 8.5127 6.90137 15.4141 15.4141 15.4141z" />
    <glyph glyph-name="i" unicode="&#xed;" horiz-adv-x="92" 
d="M45.4141 696.583c8.5127 0 15.4141 -6.90137 15.4141 -15.4102c0 -285.161 0 -457.282 0.338867 -688.396c0.015625 -8.5127 -6.87793 -15.4258 -15.3906 -15.4375h-0.0234375c-8.50488 0 -15.4023 6.88574 -15.4141 15.3906
c-0.338867 231.137 -0.338867 403.266 -0.338867 688.438c0 8.5127 6.90137 15.4141 15.4141 15.4141z" />
    <glyph glyph-name="j" unicode="j" horiz-adv-x="247" 
d="M217.744 681.169c0 -41.2393 1.04297 -89.0361 2.14844 -139.644c4.82422 -220.871 10.292 -471.209 -55.2432 -538.193c-12.1807 -12.4463 -26.4541 -18.7578 -42.4307 -18.7578c-61.832 0 -78.6865 52.7461 -86.4629 98.6982
c-10.4893 61.9902 -10.6777 157.459 -10.9629 301.967c-0.0693359 34.9121 -0.142578 72.5908 -0.374023 113.194c-0.0458984 8.51562 6.81738 15.4561 15.3301 15.502h0.0898438c8.47363 0 15.3633 -6.84375 15.4131 -15.3252
c0.231445 -40.6455 0.304688 -78.3633 0.374023 -113.307c0.566406 -287.119 3.5332 -369.895 66.5986 -369.895c7.57617 0 14.0576 3.01758 20.3926 9.49121c56.4678 57.7168 50.6836 322.57 46.4561 515.959c-0.978516 44.9121 -1.90723 87.6006 -2.11133 125.638
c-12.208 -0.701172 -24.3193 -0.958984 -36.3154 -0.958984c-16.7852 0 -33.3398 0.504883 -49.6133 0.998047c-21.957 0.666992 -44.6533 1.35645 -67.2227 0.774414c-8.45801 -0.166016 -15.5869 6.50391 -15.8066 15.0127s6.50488 15.5879 15.0137 15.8076
c23.4326 0.605469 46.5723 -0.0957031 68.9531 -0.777344c32.3691 -0.982422 62.9463 -1.91504 94.7334 0.732422c3.09082 0.25 6.02344 -0.439453 8.55859 -1.7998c7.10938 -1.37207 12.4814 -7.61035 12.4814 -15.1172z" />
    <glyph glyph-name="k" unicode="k" horiz-adv-x="269" 
d="M45.4102 -16.2588c-8.5127 0 -15.4131 6.90039 -15.4092 15.4053c0 285.173 0 457.306 0.338867 688.442c0.0117188 8.50488 6.90918 15.3906 15.4141 15.3906h0.0234375c8.5127 -0.0117188 15.4023 -6.9248 15.3906 -15.4375
c-0.0888672 -60.9229 -0.154297 -117.738 -0.204102 -173.613h1.01367c35.7676 -0.0771484 119.642 -0.211914 151.803 103.564c5.25195 16.9434 7.12891 36.4492 8.94434 55.3115l0.582031 6c0.835938 8.47363 8.38477 14.6621 16.8467 13.834
c8.47363 -0.832031 14.666 -8.37695 13.834 -16.8467l-0.574219 -5.93848c-1.96484 -20.4111 -3.99512 -41.5166 -10.1836 -61.4854c-22.9707 -74.1211 -68.4492 -104.374 -109.866 -116.735c72.3555 -47.3701 92.4814 -154.715 97.3867 -192.663
c14.6543 -113.295 19.1709 -207.954 14.6396 -306.926c-0.37793 -8.26172 -7.19824 -14.709 -15.3867 -14.709c-0.235352 0 -0.474609 0.00390625 -0.717773 0.015625c-8.50488 0.389648 -15.083 7.59961 -14.6934 16.1045
c4.44336 97.1104 -0.00390625 190.117 -14.4199 301.566c-5.37598 41.5479 -30.8467 177.697 -133.044 188.094c-0.750977 -0.00390625 -1.52539 -0.0078125 -2.24219 -0.0078125c-1.0293 0 -2.01562 0.00390625 -2.96777 0.00390625h-0.982422
c-0.111328 -145.162 -0.111328 -287.82 -0.111328 -483.956c0 -8.5127 -6.90137 -15.4141 -15.4141 -15.4141z" />
    <glyph glyph-name="l" unicode="l" horiz-adv-x="222" 
d="M45.4141 696.583c8.5127 0 15.4141 -6.90332 15.4102 -15.4121c0 -278.996 0 -449.822 0.320312 -673.521c16.4004 0.24707 31.6797 0.351562 46.4541 0.44043c35.4941 0.21582 69.0225 0.419922 109.711 2.84375c8.41992 0.512695 15.7949 -5.97266 16.2998 -14.4697
c0.508789 -8.49707 -5.96875 -15.7988 -14.4697 -16.3037c-41.5088 -2.47363 -75.4385 -2.67773 -111.356 -2.89355c-17.3672 -0.104492 -35.3281 -0.211914 -55.0654 -0.578125c-0.0966797 -0.00390625 -0.193359 -0.00390625 -0.290039 -0.00390625
c-1.69141 0 -3.29395 0.338867 -4.82031 0.84375c-0.605469 -0.0732422 -1.20312 -0.188477 -1.83105 -0.188477h-0.0234375c-8.50488 0 -15.4023 6.88574 -15.4141 15.3906c-0.338867 231.137 -0.338867 403.266 -0.338867 688.438
c0 8.5127 6.90137 15.4141 15.4141 15.4141z" />
    <glyph glyph-name="m" unicode="m" horiz-adv-x="416" 
d="M60.0449 685.759c0.107422 -0.34668 0.265625 -0.663086 0.350586 -1.02148l147.147 -618.187l147.255 618.198c0.0849609 0.358398 0.24707 0.678711 0.358398 1.0293c0.176758 0.5625 0.338867 1.12891 0.578125 1.66113
c0.196289 0.447266 0.450195 0.847656 0.685547 1.26758c0.253906 0.447266 0.485352 0.902344 0.782227 1.32227c0.292969 0.412109 0.631836 0.782227 0.962891 1.16406c0.320312 0.366211 0.625 0.744141 0.975586 1.08301
c0.354492 0.338867 0.744141 0.624023 1.12598 0.928711c0.396484 0.3125 0.782227 0.635742 1.20996 0.913086c0.392578 0.253906 0.8125 0.450195 1.22461 0.666016c0.46582 0.243164 0.920898 0.49707 1.41016 0.693359
c0.458984 0.180664 0.936523 0.295898 1.41016 0.43457c0.477539 0.138672 0.947266 0.296875 1.44434 0.389648c0.554688 0.104492 1.12891 0.131836 1.69922 0.173828c0.37793 0.0273438 0.740234 0.112305 1.12598 0.112305
c0.0771484 0 0.146484 -0.0234375 0.223633 -0.0234375c0.512695 -0.0078125 1.0293 -0.0966797 1.5459 -0.158203c0.532227 -0.0615234 1.07129 -0.0966797 1.58789 -0.211914c0.0732422 -0.015625 0.142578 -0.0117188 0.21582 -0.0273438
c0.362305 -0.0849609 0.678711 -0.24707 1.02539 -0.354492c0.566406 -0.180664 1.13672 -0.342773 1.67188 -0.582031c0.439453 -0.196289 0.839844 -0.446289 1.25586 -0.681641c0.451172 -0.253906 0.910156 -0.489258 1.33008 -0.786133
c0.412109 -0.292969 0.782227 -0.631836 1.16406 -0.962891c0.366211 -0.316406 0.744141 -0.621094 1.08301 -0.97168c0.342773 -0.354492 0.631836 -0.74707 0.936523 -1.13281c0.3125 -0.392578 0.632812 -0.774414 0.90625 -1.19824
c0.257812 -0.400391 0.458008 -0.828125 0.677734 -1.25195c0.235352 -0.455078 0.485352 -0.902344 0.677734 -1.38379c0.188477 -0.46582 0.311523 -0.958984 0.450195 -1.44434c0.134766 -0.46582 0.292969 -0.920898 0.381836 -1.40625
c0.104492 -0.570312 0.131836 -1.15234 0.173828 -1.73828c0.0273438 -0.370117 0.112305 -0.720703 0.112305 -1.09863c0 -285.161 0 -457.278 0.404297 -688.392c0.015625 -8.5127 -6.87402 -15.4258 -15.3867 -15.4414h-0.0273438
c-8.50098 0 -15.3984 6.88184 -15.4141 15.3867c-0.334961 193.442 -0.392578 345.595 -0.400391 557.225l-131.849 -553.522c-1.65332 -6.94434 -7.85742 -11.8418 -14.9941 -11.8418c-7.13672 0.00390625 -13.3408 4.90137 -14.9941 11.8457l-131.722 553.406
c0.0078125 -211.558 0.0615234 -363.68 0.400391 -557.061c0.015625 -8.5127 -6.87402 -15.4258 -15.3867 -15.4414h-0.0273438c-8.50098 0 -15.3984 6.88184 -15.4141 15.3867c-0.404297 231.141 -0.404297 403.27 -0.404297 688.446
c0 0.374023 0.0849609 0.724609 0.112305 1.09473c0.0419922 0.582031 0.0693359 1.16797 0.176758 1.73828c0.0888672 0.481445 0.243164 0.932617 0.37793 1.39844c0.138672 0.489258 0.261719 0.982422 0.450195 1.45605
c0.192383 0.477539 0.439453 0.920898 0.674805 1.37207c0.219727 0.427734 0.423828 0.859375 0.685547 1.26367c0.269531 0.419922 0.585938 0.793945 0.894531 1.18359s0.601562 0.786133 0.948242 1.14844c0.331055 0.34668 0.705078 0.643555 1.06738 0.959961
c0.385742 0.331055 0.759766 0.673828 1.17969 0.970703c0.412109 0.292969 0.863281 0.524414 1.30664 0.774414c0.423828 0.239258 0.828125 0.493164 1.2793 0.693359c0.52832 0.239258 1.09082 0.397461 1.64941 0.575195
c0.350586 0.111328 0.673828 0.273438 1.04004 0.362305c0.0732422 0.0195312 0.142578 0.015625 0.21582 0.03125c0.508789 0.111328 1.04395 0.146484 1.57227 0.208008c0.524414 0.0615234 1.04492 0.150391 1.56543 0.158203
c0.0732422 0.00390625 0.142578 0.0234375 0.21582 0.0234375c0.37793 0 0.728516 -0.0849609 1.09473 -0.112305c0.585938 -0.0419922 1.17578 -0.0693359 1.74609 -0.176758c0.473633 -0.0888672 0.920898 -0.243164 1.37988 -0.374023
c0.49707 -0.142578 0.998047 -0.265625 1.47949 -0.458008c0.46582 -0.18457 0.893555 -0.427734 1.33691 -0.655273c0.439453 -0.227539 0.882812 -0.439453 1.29883 -0.705078c0.404297 -0.265625 0.770508 -0.574219 1.14844 -0.871094
c0.400391 -0.316406 0.808594 -0.621094 1.17871 -0.975586c0.334961 -0.323242 0.62793 -0.685547 0.932617 -1.04004c0.342773 -0.392578 0.693359 -0.774414 0.994141 -1.20605c0.289062 -0.412109 0.520508 -0.859375 0.770508 -1.29883
c0.239258 -0.423828 0.493164 -0.828125 0.693359 -1.2793c0.239258 -0.535156 0.405273 -1.10547 0.583008 -1.67188z" />
    <glyph glyph-name="n" unicode="n" horiz-adv-x="346" 
d="M300.114 696.583c8.5127 0 15.4141 -6.90527 15.418 -15.4248c0 -285.161 0 -457.282 0.338867 -688.396c0 -0.0966797 -0.0273438 -0.185547 -0.0273438 -0.27832c-0.0078125 -0.59375 -0.0966797 -1.17188 -0.173828 -1.75781
c-0.0576172 -0.435547 -0.0849609 -0.878906 -0.177734 -1.30273c-0.107422 -0.489258 -0.288086 -0.955078 -0.442383 -1.43262c-0.158203 -0.477539 -0.285156 -0.966797 -0.485352 -1.42188c-0.188477 -0.431641 -0.446289 -0.828125 -0.673828 -1.24414
c-0.24707 -0.447266 -0.466797 -0.90625 -0.755859 -1.32617c-0.292969 -0.419922 -0.643555 -0.790039 -0.974609 -1.18262c-0.304688 -0.358398 -0.585938 -0.736328 -0.920898 -1.06738c-0.358398 -0.350586 -0.766602 -0.643555 -1.15918 -0.959961
c-0.389648 -0.316406 -0.763672 -0.647461 -1.18359 -0.924805c-0.362305 -0.235352 -0.766602 -0.419922 -1.15625 -0.62793c-0.516602 -0.28125 -1.02539 -0.566406 -1.57617 -0.786133c-0.0849609 -0.0351562 -0.158203 -0.0888672 -0.24707 -0.124023
c-0.447266 -0.169922 -0.902344 -0.250977 -1.35352 -0.374023c-0.389648 -0.107422 -0.767578 -0.246094 -1.16797 -0.323242c-0.982422 -0.188477 -1.96094 -0.299805 -2.93555 -0.299805c-0.944336 0 -1.87305 0.115234 -2.79004 0.285156
c-0.28125 0.0498047 -0.550781 0.123047 -0.824219 0.188477c-0.631836 0.154297 -1.24414 0.342773 -1.84961 0.574219c-0.277344 0.104492 -0.558594 0.201172 -0.828125 0.324219c-0.748047 0.331055 -1.47266 0.716797 -2.1582 1.16797
c-0.0615234 0.0419922 -0.126953 0.0693359 -0.18457 0.107422c-0.748047 0.504883 -1.4375 1.09082 -2.08887 1.72266c-0.169922 0.169922 -0.324219 0.350586 -0.490234 0.52832c-0.451172 0.481445 -0.875 0.990234 -1.26758 1.5332
c-0.177734 0.24707 -0.347656 0.494141 -0.509766 0.751953c-0.327148 0.516602 -0.616211 1.06348 -0.885742 1.62598c-0.138672 0.289062 -0.289062 0.570312 -0.408203 0.867188c-0.0380859 0.100586 -0.0957031 0.185547 -0.133789 0.286133
c-54.4336 143.768 -119.511 322.552 -171.798 466.212c-20.207 55.5166 -39.0391 107.253 -53.416 146.35c0 -238.385 0.03125 -398.795 0.339844 -607.08c0.015625 -8.5127 -6.87793 -15.4258 -15.3906 -15.4375h-0.0234375c-8.50488 0 -15.4023 6.88574 -15.4141 15.3906
c-0.338867 231.137 -0.338867 403.266 -0.338867 688.438c0 8.5127 6.90137 15.4141 15.4141 15.4141c6 0 11.1406 -3.45996 13.6875 -8.46191c4.99023 -6.69336 15.001 -34.1992 84.1123 -224.069c42.9502 -118 94.5205 -259.683 141.714 -386.137
c-0.227539 191.284 -0.227539 354.142 -0.227539 603.258c0 8.5127 6.90137 15.4141 15.4141 15.4141z" />
    <glyph glyph-name="o" unicode="o" horiz-adv-x="355" 
d="M149.1 708.598c32.6582 10.2266 80.4873 8.12402 122.956 -59.9541c43.0732 -69.0537 69.0879 -191.593 67.8936 -319.8c-1.2832 -137.482 -32.585 -248.565 -85.8857 -304.768c-23.8447 -25.1475 -54.8027 -39.4902 -85.1211 -39.4902
c-0.423828 0 -0.84375 0.00390625 -1.26367 0.0078125c-26.3037 0.34668 -49.8486 11.252 -68.0908 31.5322c-90.2705 100.37 -105.542 365.863 -58.8809 536.192c23.9795 87.5381 61.4619 141.578 108.393 156.279zM231.698 45.2891
c104.17 109.85 97.2441 453.911 14.1992 587.035c-20.6777 33.1475 -43.7793 49.8369 -68.8691 49.8369c-6.11914 0 -12.3574 -0.990234 -18.7119 -2.98242c-35.8984 -11.2441 -67.1074 -59.1885 -87.877 -135.005c-43.6514 -159.351 -30.415 -415.723 52.0713 -507.435
c12.3389 -13.7178 28.0996 -21.0898 45.5752 -21.3213c22.0342 -0.296875 45.332 10.5967 63.6123 29.8711z" />
    <glyph glyph-name="o" unicode="&#xf6;" horiz-adv-x="355" 
d="M149.1 708.598c32.6582 10.2266 80.4873 8.12402 122.956 -59.9541c43.0732 -69.0537 69.0879 -191.593 67.8936 -319.8c-1.2832 -137.482 -32.585 -248.565 -85.8857 -304.768c-23.8447 -25.1475 -54.8027 -39.4902 -85.1211 -39.4902
c-0.423828 0 -0.84375 0.00390625 -1.26367 0.0078125c-26.3037 0.34668 -49.8486 11.252 -68.0908 31.5322c-90.2705 100.37 -105.542 365.863 -58.8809 536.192c23.9795 87.5381 61.4619 141.578 108.393 156.279zM231.698 45.2891
c104.17 109.85 97.2441 453.911 14.1992 587.035c-20.6777 33.1475 -43.7793 49.8369 -68.8691 49.8369c-6.11914 0 -12.3574 -0.990234 -18.7119 -2.98242c-35.8984 -11.2441 -67.1074 -59.1885 -87.877 -135.005c-43.6514 -159.351 -30.415 -415.723 52.0713 -507.435
c12.3389 -13.7178 28.0996 -21.0898 45.5752 -21.3213c22.0342 -0.296875 45.332 10.5967 63.6123 29.8711z" />
    <glyph glyph-name="o" unicode="&#xf5;" horiz-adv-x="355" 
d="M149.1 708.598c32.6582 10.2266 80.4873 8.12402 122.956 -59.9541c43.0732 -69.0537 69.0879 -191.593 67.8936 -319.8c-1.2832 -137.482 -32.585 -248.565 -85.8857 -304.768c-23.8447 -25.1475 -54.8027 -39.4902 -85.1211 -39.4902
c-0.423828 0 -0.84375 0.00390625 -1.26367 0.0078125c-26.3037 0.34668 -49.8486 11.252 -68.0908 31.5322c-90.2705 100.37 -105.542 365.863 -58.8809 536.192c23.9795 87.5381 61.4619 141.578 108.393 156.279zM231.698 45.2891
c104.17 109.85 97.2441 453.911 14.1992 587.035c-20.6777 33.1475 -43.7793 49.8369 -68.8691 49.8369c-6.11914 0 -12.3574 -0.990234 -18.7119 -2.98242c-35.8984 -11.2441 -67.1074 -59.1885 -87.877 -135.005c-43.6514 -159.351 -30.415 -415.723 52.0713 -507.435
c12.3389 -13.7178 28.0996 -21.0898 45.5752 -21.3213c22.0342 -0.296875 45.332 10.5967 63.6123 29.8711z" />
    <glyph glyph-name="o" unicode="&#xf4;" horiz-adv-x="355" 
d="M149.1 708.598c32.6582 10.2266 80.4873 8.12402 122.956 -59.9541c43.0732 -69.0537 69.0879 -191.593 67.8936 -319.8c-1.2832 -137.482 -32.585 -248.565 -85.8857 -304.768c-23.8447 -25.1475 -54.8027 -39.4902 -85.1211 -39.4902
c-0.423828 0 -0.84375 0.00390625 -1.26367 0.0078125c-26.3037 0.34668 -49.8486 11.252 -68.0908 31.5322c-90.2705 100.37 -105.542 365.863 -58.8809 536.192c23.9795 87.5381 61.4619 141.578 108.393 156.279zM231.698 45.2891
c104.17 109.85 97.2441 453.911 14.1992 587.035c-20.6777 33.1475 -43.7793 49.8369 -68.8691 49.8369c-6.11914 0 -12.3574 -0.990234 -18.7119 -2.98242c-35.8984 -11.2441 -67.1074 -59.1885 -87.877 -135.005c-43.6514 -159.351 -30.415 -415.723 52.0713 -507.435
c12.3389 -13.7178 28.0996 -21.0898 45.5752 -21.3213c22.0342 -0.296875 45.332 10.5967 63.6123 29.8711z" />
    <glyph glyph-name="o" unicode="&#xf3;" horiz-adv-x="355" 
d="M149.1 708.598c32.6582 10.2266 80.4873 8.12402 122.956 -59.9541c43.0732 -69.0537 69.0879 -191.593 67.8936 -319.8c-1.2832 -137.482 -32.585 -248.565 -85.8857 -304.768c-23.8447 -25.1475 -54.8027 -39.4902 -85.1211 -39.4902
c-0.423828 0 -0.84375 0.00390625 -1.26367 0.0078125c-26.3037 0.34668 -49.8486 11.252 -68.0908 31.5322c-90.2705 100.37 -105.542 365.863 -58.8809 536.192c23.9795 87.5381 61.4619 141.578 108.393 156.279zM231.698 45.2891
c104.17 109.85 97.2441 453.911 14.1992 587.035c-20.6777 33.1475 -43.7793 49.8369 -68.8691 49.8369c-6.11914 0 -12.3574 -0.990234 -18.7119 -2.98242c-35.8984 -11.2441 -67.1074 -59.1885 -87.877 -135.005c-43.6514 -159.351 -30.415 -415.723 52.0713 -507.435
c12.3389 -13.7178 28.0996 -21.0898 45.5752 -21.3213c22.0342 -0.296875 45.332 10.5967 63.6123 29.8711z" />
    <glyph glyph-name="p" unicode="p" horiz-adv-x="270" 
d="M58.7354 700.521c44.3564 2.95215 148.232 9.87695 194.315 -35.5322c16.4854 -16.2461 24.1846 -37.1934 22.8818 -62.2559c-1.25195 -24.0723 -11.7988 -44.7383 -31.3584 -61.4277c-45.1582 -38.5303 -128.601 -45.8867 -173.612 -45.8867
c-3.61035 0 -6.93555 0.0537109 -10.0107 0.134766c-0.123047 -150.627 -0.123047 -296.422 -0.123047 -499.594c0 -8.5127 -6.90137 -15.4141 -15.4141 -15.4141s-15.4141 6.90137 -15.4141 15.4141c0 285.173 0 457.302 0.338867 688.438
c0.0117188 8.50488 6.90918 15.3906 15.4141 15.3906h0.0234375c0.142578 0 0.273438 -0.0380859 0.416016 -0.0419922c0.0654297 0.00390625 0.126953 0.0234375 0.196289 0.0273438c3.16406 0.134766 7.34863 0.416016 12.3467 0.74707zM231.41 643.028
c-36.1025 35.5791 -133.245 29.2236 -170.269 26.7578c-0.0693359 -49.8516 -0.126953 -97.0986 -0.168945 -143.471c39.3125 -1.3252 124.146 4.78613 163.585 38.4385c13.0479 11.1289 19.7803 24.0762 20.5859 39.5742
c0.839844 16.1074 -3.65332 28.7656 -13.7334 38.7002z" />
    <glyph glyph-name="q" unicode="q" horiz-adv-x="355" 
d="M149.1 708.598c32.6582 10.2266 80.4873 8.125 122.96 -59.957c43.0732 -69.0537 69.0879 -191.593 67.8936 -319.8c-1.2832 -137.482 -32.585 -248.565 -85.8857 -304.768c-10.208 -10.7627 -21.7256 -19.5293 -33.9297 -26.0566
c15.7607 -41.0771 32.6582 -81.4648 50.5186 -120.72c3.52246 -7.74512 0.100586 -16.8857 -7.64844 -20.4121c-2.06934 -0.94043 -4.23926 -1.3877 -6.37402 -1.3877c-5.85742 0 -11.4561 3.35254 -14.042 9.03223c-18.1416 39.875 -35.3008 80.8945 -51.3037 122.611
c-7.41016 -1.67969 -14.8975 -2.55469 -22.3457 -2.55469c-0.423828 0 -0.84375 0.00390625 -1.26367 0.0078125c-26.3037 0.34668 -49.8486 11.252 -68.0908 31.5322c-90.2705 100.37 -105.542 365.863 -58.8809 536.192c23.9795 87.5381 61.4619 141.578 108.393 156.279z
M231.698 45.2891c104.166 109.85 97.2422 453.909 14.1934 587.037c-20.6777 33.1475 -43.7793 49.8369 -68.8691 49.8369c-6.11914 0 -12.3574 -0.990234 -18.7119 -2.98242c-35.8984 -11.2441 -67.1074 -59.1885 -87.877 -135.005
c-43.6514 -159.351 -30.415 -415.723 52.0713 -507.435c12.3389 -13.7178 28.0996 -21.0898 45.5752 -21.3213c4.05371 -0.0537109 8.14648 0.273438 12.2393 0.955078c-5.75293 15.6338 -11.3555 31.3438 -16.7656 47.1201c-2.7627 8.0498 1.53027 16.8164 9.58008 19.5791
c8.05371 2.75879 16.8203 -1.52637 19.583 -9.58008c5.31348 -15.502 10.8242 -30.9385 16.4736 -46.3018c7.99219 4.73633 15.6025 10.8174 22.5078 18.0967z" />
    <glyph glyph-name="r" unicode="r" horiz-adv-x="291" 
d="M58.6387 700.51c44.7998 2.95898 149.707 9.89551 195.362 -35.8486c16.2422 -16.2773 23.6143 -37.1934 21.915 -62.1709c-4.64355 -68.1367 -79.3926 -93.5889 -140.866 -102.964c53.085 -24.7549 100.952 -81.4775 116.354 -200.545
c14.6543 -113.291 19.1709 -207.95 14.6436 -306.93c-0.37793 -8.26172 -7.19824 -14.709 -15.3867 -14.709c-0.239258 0 -0.474609 0.00390625 -0.717773 0.015625c-8.50488 0.389648 -15.083 7.59961 -14.6934 16.1045
c4.44727 97.1221 -0.00390625 190.125 -14.416 301.566c-15.9229 123.102 -69.709 187.118 -159.891 190.459c-0.115234 -147.093 -0.115234 -290.884 -0.115234 -489.528c0 -8.5127 -6.90137 -15.4141 -15.4141 -15.4141s-15.4141 6.90137 -15.4141 15.4141
c0 285.173 0 457.302 0.338867 688.438c0.0117188 8.50488 6.90918 15.3906 15.4141 15.3906h0.0234375c0.142578 0 0.273438 -0.0380859 0.416016 -0.0419922c0.0693359 0.00390625 0.130859 0.0234375 0.200195 0.0273438
c3.13672 0.130859 7.2832 0.408203 12.2461 0.735352zM232.19 642.874c-35.6328 35.7061 -133.581 29.3828 -171.044 26.9014c-0.0693359 -50.3408 -0.126953 -98.0273 -0.168945 -144.839c43.4902 -0.928711 179.404 9.46387 184.183 79.6387
c1.08691 15.9375 -3.15527 28.4648 -12.9697 38.2988z" />
    <glyph glyph-name="s" unicode="s" horiz-adv-x="268" 
d="M28.6289 606.231c25.3096 52.7344 76.7686 85.1826 131.287 82.6475c27.0625 -1.25195 53.1387 -14.3193 71.5312 -35.8486c22.6924 -26.5498 32.6309 -64.2676 27.9912 -106.2c-0.936523 -8.46191 -8.58594 -14.5469 -17.0137 -13.626
c-8.46191 0.936523 -14.5615 8.55469 -13.625 17.0166c4.73242 42.7812 -8.69336 68.6299 -20.7852 82.7832c-12.8896 15.0781 -30.9434 24.2188 -49.5322 25.082c-41.9756 1.93066 -82.1055 -23.6445 -102.051 -65.2002
c-26.5273 -55.2773 -11.2217 -127.521 0.257812 -165.663c14.2656 -47.3857 51.3203 -89.5117 90.5479 -134.107c60.1826 -68.4219 122.415 -139.171 106.315 -236.663c-6.50098 -39.3477 -26.5352 -70.4482 -54.9697 -85.3223
c-10.1807 -5.3252 -24.0264 -9.95703 -41.3818 -9.95703c-15.1514 0 -32.9775 3.5293 -53.3701 13.209c-75.3848 35.7832 -71.4854 164.318 -66.3145 196.783c1.34082 8.4043 9.24805 14.1348 17.6445 12.7979c8.4043 -1.34082 14.1387 -9.24023 12.7979 -17.6484
c-5.34473 -33.5479 -3.6377 -139.059 49.085 -164.083c25.5439 -12.123 48.8037 -13.4336 67.2461 -3.78418c19.7793 10.3467 33.9365 33.3213 38.8418 63.0312c13.7178 83.0762 -41.0586 145.352 -99.0488 211.28c-39.6787 45.1123 -80.7139 91.7617 -96.918 145.583
c-12.7705 42.4189 -29.5635 123.233 1.46387 187.89z" />
    <glyph glyph-name="t" unicode="t" horiz-adv-x="287" 
d="M145.441 696.583c0.948242 0 1.86328 -0.111328 2.76074 -0.28125c44.3027 -0.385742 88.1514 -0.524414 139.274 0.697266c8.41602 0.24707 15.5752 -6.53125 15.7793 -15.04s-6.53125 -15.5723 -15.04 -15.7764
c-30.6191 -0.732422 -58.6064 -0.979492 -85.6113 -0.979492c-14.1074 0 -27.9492 0.0654297 -41.7559 0.169922c0 -275.744 0.0078125 -445.808 0.338867 -672.602c0.0117188 -8.5127 -6.87793 -15.4258 -15.3906 -15.4375h-0.0234375
c-8.50488 0 -15.4023 6.88574 -15.4141 15.3906c-0.334961 226.89 -0.338867 396.999 -0.338867 672.916c-3.26367 0.0351562 -6.50781 0.0664062 -9.79102 0.0976562c-38.0723 0.37793 -77.4277 0.770508 -121.707 0.439453h-0.115234
c-8.45801 0 -15.3438 6.82422 -15.4092 15.2979c-0.0615234 8.5127 6.79004 15.4678 15.3027 15.5293c44.5342 0.323242 84.0361 -0.0625 122.239 -0.44043c7.57227 -0.0732422 15.0869 -0.146484 22.582 -0.21582c0.762695 0.115234 1.52539 0.234375 2.31934 0.234375z
" />
    <glyph glyph-name="u" unicode="u" horiz-adv-x="348" 
d="M40.9648 699.435c8.41211 -1.32129 14.1533 -9.21289 12.832 -17.6211c-7.83008 -49.7363 -21.0781 -507.947 77.2266 -630.209c13.7139 -17.0596 28.3301 -25.8301 44.6797 -26.8164c16.416 -0.982422 30.7197 4.56641 43.6328 17.001
c86.7217 83.5381 78.8184 429.812 74.5684 615.844l-0.635742 28.3691c-0.18457 8.50879 6.56641 15.5566 15.0791 15.7412c8.60449 0.196289 15.5596 -6.57031 15.7402 -15.0791l0.635742 -28.3301c4.66309 -204.146 12.4629 -545.826 -84 -638.748
c-17.7529 -17.0977 -38.334 -25.7412 -61.25 -25.7412c-1.86133 0 -3.73828 0.0537109 -5.62988 0.168945c-25.1592 1.51855 -47.6514 14.3926 -66.8496 38.2725c-45.9795 57.1885 -74.5947 179.258 -85.0488 362.819c-7.67969 134.805 -2.43945 267.132 1.39844 291.501
c1.3252 8.4082 9.21289 14.1533 17.6211 12.8281z" />
    <glyph glyph-name="u" unicode="&#xfc;" horiz-adv-x="348" 
d="M40.9648 699.435c8.41211 -1.32129 14.1533 -9.21289 12.832 -17.6211c-7.83008 -49.7363 -21.0781 -507.947 77.2266 -630.209c13.7139 -17.0596 28.3301 -25.8301 44.6797 -26.8164c16.416 -0.982422 30.7197 4.56641 43.6328 17.001
c86.7217 83.5381 78.8184 429.812 74.5684 615.844l-0.635742 28.3691c-0.18457 8.50879 6.56641 15.5566 15.0791 15.7412c8.60449 0.196289 15.5596 -6.57031 15.7402 -15.0791l0.635742 -28.3301c4.66309 -204.146 12.4629 -545.826 -84 -638.748
c-17.7529 -17.0977 -38.334 -25.7412 -61.25 -25.7412c-1.86133 0 -3.73828 0.0537109 -5.62988 0.168945c-25.1592 1.51855 -47.6514 14.3926 -66.8496 38.2725c-45.9795 57.1885 -74.5947 179.258 -85.0488 362.819c-7.67969 134.805 -2.43945 267.132 1.39844 291.501
c1.3252 8.4082 9.21289 14.1533 17.6211 12.8281z" />
    <glyph glyph-name="u" unicode="&#xfb;" horiz-adv-x="348" 
d="M40.9648 699.435c8.41211 -1.32129 14.1533 -9.21289 12.832 -17.6211c-7.83008 -49.7363 -21.0781 -507.947 77.2266 -630.209c13.7139 -17.0596 28.3301 -25.8301 44.6797 -26.8164c16.416 -0.982422 30.7197 4.56641 43.6328 17.001
c86.7217 83.5381 78.8184 429.812 74.5684 615.844l-0.635742 28.3691c-0.18457 8.50879 6.56641 15.5566 15.0791 15.7412c8.60449 0.196289 15.5596 -6.57031 15.7402 -15.0791l0.635742 -28.3301c4.66309 -204.146 12.4629 -545.826 -84 -638.748
c-17.7529 -17.0977 -38.334 -25.7412 -61.25 -25.7412c-1.86133 0 -3.73828 0.0537109 -5.62988 0.168945c-25.1592 1.51855 -47.6514 14.3926 -66.8496 38.2725c-45.9795 57.1885 -74.5947 179.258 -85.0488 362.819c-7.67969 134.805 -2.43945 267.132 1.39844 291.501
c1.3252 8.4082 9.21289 14.1533 17.6211 12.8281z" />
    <glyph glyph-name="u" unicode="&#xfa;" horiz-adv-x="348" 
d="M40.9648 699.435c8.41211 -1.32129 14.1533 -9.21289 12.832 -17.6211c-7.83008 -49.7363 -21.0781 -507.947 77.2266 -630.209c13.7139 -17.0596 28.3301 -25.8301 44.6797 -26.8164c16.416 -0.982422 30.7197 4.56641 43.6328 17.001
c86.7217 83.5381 78.8184 429.812 74.5684 615.844l-0.635742 28.3691c-0.18457 8.50879 6.56641 15.5566 15.0791 15.7412c8.60449 0.196289 15.5596 -6.57031 15.7402 -15.0791l0.635742 -28.3301c4.66309 -204.146 12.4629 -545.826 -84 -638.748
c-17.7529 -17.0977 -38.334 -25.7412 -61.25 -25.7412c-1.86133 0 -3.73828 0.0537109 -5.62988 0.168945c-25.1592 1.51855 -47.6514 14.3926 -66.8496 38.2725c-45.9795 57.1885 -74.5947 179.258 -85.0488 362.819c-7.67969 134.805 -2.43945 267.132 1.39844 291.501
c1.3252 8.4082 9.21289 14.1533 17.6211 12.8281z" />
    <glyph glyph-name="v" unicode="v" horiz-adv-x="381" 
d="M187.896 67.1064c18.9932 65.4775 52.6357 190.765 83.29 304.949c30.2607 112.686 61.5469 229.205 85.8076 315.564c2.30078 8.19629 10.8096 12.9785 19.0098 10.6699c8.19629 -2.30469 12.9746 -10.8135 10.6699 -19.0098
c-24.2109 -86.1895 -55.4736 -202.625 -85.708 -315.223c-24.7734 -92.2627 -48.1758 -179.408 -66.3369 -244.894c-32.0918 -115.695 -33.3438 -116.135 -43.0967 -119.564c-1.65332 -0.582031 -3.39551 -0.867188 -5.12988 -0.867188
c-3.29883 0 -6.59375 1.02539 -9.2793 2.99414c-5.02441 3.67969 -5.02441 3.67969 -18.3076 54.7256c-7.47559 28.7314 -17.8418 69.0498 -29.8457 115.742c-43.2393 168.194 -108.59 422.37 -135.29 509.635c-2.49316 8.13867 2.08887 16.7588 10.2314 19.248
c8.15039 2.49707 16.7588 -2.09668 19.248 -10.2314c26.9004 -87.9355 92.3545 -342.517 135.667 -510.98c11.1211 -43.2627 21.4443 -83.4229 29.0703 -112.759z" />
    <glyph glyph-name="w" unicode="w" horiz-adv-x="453" 
d="M437.628 698.68c8.41211 -1.27148 14.2061 -9.11914 12.9268 -17.5391c-24.8008 -164.557 -111.61 -673.098 -112.485 -678.215c-1.26758 -7.41406 -7.69141 -12.8203 -15.1904 -12.8203h-0.208008c-7.58789 0.100586 -13.9766 5.71094 -15.0518 13.2217
l-81.2188 565.684c-9.02051 -62.8691 -21.0205 -146.4 -33.0244 -229.946c-24.1221 -167.883 -48.2676 -335.742 -48.2676 -335.742c-1.0791 -7.51074 -7.46387 -13.1172 -15.0518 -13.2178h-0.208008c-7.49902 0 -13.9229 5.40625 -15.1904 12.8203
c-0.871094 5.11719 -87.6807 513.658 -112.485 678.215c-1.27148 8.41992 4.52441 16.2734 12.9404 17.541c8.42773 1.27539 16.2734 -4.52832 17.541 -12.9443c18.1035 -120.081 69.3389 -423.989 95.9316 -580.785c26.4844 184.213 81.415 566.323 82.3936 574.003
l0.227539 -0.03125c0.801758 6.77051 5.99609 12.4424 13.0596 13.4561c5.96875 0.851562 11.6064 -1.88867 14.8281 -6.54395c0.847656 -1.05957 1.46777 -2.05371 1.83398 -3.42578c0.362305 -0.982422 0.631836 -2.01855 0.786133 -3.09766l82.4561 -574.288
c26.5967 156.819 77.8203 460.654 95.916 580.712c1.26758 8.41602 9.11719 14.2119 17.541 12.9443z" />
    <glyph glyph-name="x" unicode="x" horiz-adv-x="342" 
d="M6.50098 686.854c7.86914 3.26758 16.8867 -0.461914 20.1387 -8.31934c45.8291 -110.297 93.2529 -220.347 141.926 -329.395c50.6221 110.188 100.343 221.094 148.808 331.965c3.41406 7.7998 12.5078 11.3604 20.2998 7.9502
c7.7998 -3.41016 11.3604 -12.4961 7.9502 -20.2959c-52.1172 -119.226 -105.715 -238.47 -160.295 -356.847c43.5557 -96.8096 88.0166 -192.81 133.256 -287.361c3.67188 -7.67578 0.423828 -16.8818 -7.25195 -20.5537
c-2.14648 -1.0293 -4.41602 -1.51465 -6.64355 -1.51465c-5.74902 0 -11.2637 3.2334 -13.915 8.7666c-41.54 86.8213 -82.4287 174.86 -122.57 263.62c-42.0098 -90.6211 -84.5596 -180.684 -127.514 -269.705c-2.65527 -5.51074 -8.16211 -8.7207 -13.8926 -8.7207
c-2.24609 0 -4.52344 0.493164 -6.68555 1.5332c-7.66406 3.69922 -10.8818 12.9131 -7.18262 20.5811c46.7109 96.8135 92.9443 194.86 138.519 293.523c-52.6338 117.313 -103.893 235.807 -153.263 354.623c-3.26758 7.86133 0.455078 16.8818 8.31641 20.1494z" />
    <glyph glyph-name="y" unicode="y" horiz-adv-x="340" 
d="M79.8281 521.854c31.54 -87.2803 66.2627 -183.364 85.2832 -230.843c29.8838 78.7217 105.665 277.608 156.041 403.169c3.16406 7.89941 12.1426 11.7334 20.042 8.56543c7.90332 -3.1709 11.7373 -12.1455 8.56641 -20.0449
c-63.4932 -158.271 -167.521 -433.479 -168.564 -436.242c-0.015625 -0.0380859 -0.0351562 -0.0693359 -0.0507812 -0.104492v-8.0498c0 -60.7646 0 -187.203 -0.243164 -231.587c-0.0498047 -8.48535 -6.93945 -15.3291 -15.4131 -15.3291h-0.0859375
c-8.5127 0.0458984 -15.376 6.98633 -15.3301 15.499c0.24707 44.2988 0.243164 170.68 0.243164 231.414v10.5664c-11.2441 20.4463 -33.4941 79.9082 -99.4805 262.507c-20.2227 55.9561 -41.1318 113.815 -59.875 164.55
c-2.95215 7.98438 1.12891 16.8477 9.11328 19.7998c7.97656 2.94043 16.8506 -1.12891 19.8027 -9.11719c18.7852 -50.8379 39.7129 -108.747 59.9512 -164.753z" />
    <glyph glyph-name="y" unicode="&#xff;" horiz-adv-x="340" 
d="M79.8281 521.854c31.54 -87.2803 66.2627 -183.364 85.2832 -230.843c29.8838 78.7217 105.665 277.608 156.041 403.169c3.16406 7.89941 12.1426 11.7334 20.042 8.56543c7.90332 -3.1709 11.7373 -12.1455 8.56641 -20.0449
c-63.4932 -158.271 -167.521 -433.479 -168.564 -436.242c-0.015625 -0.0380859 -0.0351562 -0.0693359 -0.0507812 -0.104492v-8.0498c0 -60.7646 0 -187.203 -0.243164 -231.587c-0.0498047 -8.48535 -6.93945 -15.3291 -15.4131 -15.3291h-0.0859375
c-8.5127 0.0458984 -15.376 6.98633 -15.3301 15.499c0.24707 44.2988 0.243164 170.68 0.243164 231.414v10.5664c-11.2441 20.4463 -33.4941 79.9082 -99.4805 262.507c-20.2227 55.9561 -41.1318 113.815 -59.875 164.55
c-2.95215 7.98438 1.12891 16.8477 9.11328 19.7998c7.97656 2.94043 16.8506 -1.12891 19.8027 -9.11719c18.7852 -50.8379 39.7129 -108.747 59.9512 -164.753z" />
    <glyph glyph-name="y" unicode="&#xfd;" horiz-adv-x="340" 
d="M79.8281 521.854c31.54 -87.2803 66.2627 -183.364 85.2832 -230.843c29.8838 78.7217 105.665 277.608 156.041 403.169c3.16406 7.89941 12.1426 11.7334 20.042 8.56543c7.90332 -3.1709 11.7373 -12.1455 8.56641 -20.0449
c-63.4932 -158.271 -167.521 -433.479 -168.564 -436.242c-0.015625 -0.0380859 -0.0351562 -0.0693359 -0.0507812 -0.104492v-8.0498c0 -60.7646 0 -187.203 -0.243164 -231.587c-0.0498047 -8.48535 -6.93945 -15.3291 -15.4131 -15.3291h-0.0859375
c-8.5127 0.0458984 -15.376 6.98633 -15.3301 15.499c0.24707 44.2988 0.243164 170.68 0.243164 231.414v10.5664c-11.2441 20.4463 -33.4941 79.9082 -99.4805 262.507c-20.2227 55.9561 -41.1318 113.815 -59.875 164.55
c-2.95215 7.98438 1.12891 16.8477 9.11328 19.7998c7.97656 2.94043 16.8506 -1.12891 19.8027 -9.11719c18.7852 -50.8379 39.7129 -108.747 59.9512 -164.753z" />
    <glyph glyph-name="z" unicode="z" horiz-adv-x="293" 
d="M-4.31641 -1.88965c-2.92871 4.29297 -3.5 9.77441 -1.50781 14.584l267.328 646.863c-43.96 0.381836 -143.667 1.00977 -228.836 -0.176758c-8.57812 -0.257812 -15.5107 6.68652 -15.6299 15.1992s6.68555 15.5068 15.1982 15.626
c112.852 1.57617 251.024 -0.0234375 252.4 -0.0429688c5.11328 -0.0615234 9.86426 -2.65137 12.6807 -6.9209s3.33301 -9.65234 1.37891 -14.3809l-267.051 -646.189c53.3857 1.00195 181.45 3.22168 225.88 2.43164c8.5127 -0.150391 15.291 -7.1709 15.1367 -15.6836
c-0.146484 -8.41992 -7.01758 -15.1406 -15.4062 -15.1406c-0.0888672 0 -0.185547 0.00390625 -0.27832 0.00390625c-54.8994 0.966797 -246.33 -2.84766 -248.257 -2.88574c-0.100586 -0.00390625 -0.208008 -0.00390625 -0.308594 -0.00390625
c-5.08691 0 -9.84961 2.50879 -12.7285 6.7168z" />
    <glyph glyph-name="braceleft" unicode="{" horiz-adv-x="323" 
d="M271.434 -222.211c3.93457 -7.54883 1.00098 -16.8574 -6.54785 -20.792c-9.70312 -5.05566 -20.1807 -7.4873 -30.8389 -7.4873c-26.1807 0 -53.4707 14.6621 -73.1621 41.1621c-21.04 28.3193 -34.4502 68.1523 -39.8564 118.397
c-3.25195 30.2305 -3.39844 60.915 -3.53711 90.5898c-0.0537109 11.333 -0.103516 22.666 -0.327148 33.9834c-0.990234 50.7266 -5.50293 102.986 -13.4062 155.323c-8.47754 56.1367 -23.0742 73.1689 -33.8291 77.5693l-0.956055 0.37793
c-3.06348 1.19043 -8.18848 3.18262 -12.458 8.21484c-7.93066 9.34082 -8.62402 23.082 -2.06934 40.8428c27.9912 75.8936 49.3242 156.226 63.3936 238.762c4.03027 23.6719 7.57129 48.126 10.9971 71.7783c9.93066 68.5869 20.2002 139.509 44.0645 203.572
c19.5449 52.4756 48.7197 78.5752 79.9561 71.624c8.30762 -1.84961 13.5449 -10.084 11.6992 -18.3916c-1.8418 -8.31152 -10.1035 -13.5479 -18.3887 -11.6982c-15.7803 3.50293 -34.0762 -24.6426 -44.3799 -52.2949
c-22.7119 -60.9766 -32.7383 -130.242 -42.4375 -197.23c-3.45312 -23.8369 -7.02148 -48.4873 -11.1211 -72.54c-14.3887 -84.4014 -36.2109 -166.58 -64.8613 -244.254c-1.85742 -5.04004 -2.40039 -8.18848 -2.53125 -9.93066l0.758789 -0.300781
c35.6562 -14.5928 47.1201 -64.9189 52.6455 -101.503c8.09961 -53.6553 12.7236 -107.261 13.7451 -159.32c0.227539 -11.5029 0.28125 -23.1631 0.334961 -34.4424c0.134766 -28.8965 0.277344 -58.7764 3.36035 -87.4346
c4.74316 -44.0752 16.4844 -79.7969 33.9521 -103.307c15.6299 -21.0283 41.7949 -36.8271 65.0078 -24.7236c7.55273 3.93066 16.8584 1.00586 20.793 -6.54688z" />
    <glyph glyph-name="verticalbar" unicode="|" horiz-adv-x="131" 
d="M80.8271 824.462c0 -425.427 0 -682.211 0.342773 -1027.01c0.0078125 -8.5127 -6.88574 -15.4219 -15.3984 -15.4297h-0.015625c-8.50488 0 -15.4062 6.88965 -15.4141 15.3984c-0.342773 344.816 -0.342773 601.609 -0.342773 1027.04
c0 8.5127 6.90137 15.4141 15.4141 15.4141s15.4141 -6.90137 15.4141 -15.4141z" />
    <glyph glyph-name="braceright" unicode="}" horiz-adv-x="323" 
d="M268.735 315.971c6.55859 -17.7607 5.86035 -31.5029 -2.07422 -40.8516c-4.26953 -5.03223 -9.39453 -7.02441 -12.458 -8.21484l-0.959961 -0.37793c-10.751 -4.40039 -25.3477 -21.4326 -33.8252 -77.5693c-7.89941 -52.3369 -12.4121 -104.597 -13.4062 -155.323
c-0.223633 -11.3174 -0.273438 -22.6543 -0.327148 -33.9873c-0.138672 -29.6748 -0.285156 -60.3594 -3.54102 -90.5898c-5.40625 -50.2412 -18.8125 -90.0742 -39.8525 -118.394c-19.6914 -26.5 -46.9854 -41.1621 -73.1621 -41.1621
c-10.6621 0 -21.1318 2.43164 -30.8389 7.4873c-7.54883 3.93457 -10.4775 13.2441 -6.54297 20.793s13.2441 10.4775 20.793 6.54688c23.2207 -12.0996 49.3818 3.69531 65.0078 24.7236c17.4717 23.5098 29.2129 59.2314 33.9492 103.307
c3.08691 28.6582 3.22949 58.542 3.36426 87.4385c0.0537109 11.2793 0.107422 22.9395 0.334961 34.4453c1.01758 52.0596 5.6416 105.665 13.7451 159.32c5.52148 36.584 16.9893 86.9102 52.6377 101.499l0.766602 0.304688
c-0.130859 1.74219 -0.673828 4.89062 -2.53125 9.92676c-28.6504 77.6777 -50.4727 159.856 -64.8613 244.258c-4.09961 24.0527 -7.66797 48.7031 -11.1211 72.5439c-9.69922 66.9883 -19.7256 136.254 -42.4375 197.23
c-10.3037 27.6523 -28.5879 55.7939 -44.3789 52.2949c-8.28516 -1.8457 -16.543 3.3877 -18.3887 11.6992c-1.84961 8.31152 3.39062 16.5459 11.6982 18.3916c31.2588 6.95508 60.418 -19.1523 79.9551 -71.624c23.8643 -64.0635 34.1338 -134.985 44.0645 -203.572
c3.42188 -23.6484 6.96289 -48.1064 10.9971 -71.7783c14.0693 -82.5361 35.3984 -162.868 63.3936 -238.766z" />
    <glyph glyph-name="nonbreakingspace" unicode="&#xa0;" horiz-adv-x="196" 
 />
    <glyph glyph-name="exclamdown" unicode="&#xa1;" horiz-adv-x="134" 
d="M83.7383 314.846c0 -285.161 0 -457.282 0.342773 -688.396c0.0117188 -8.5127 -6.87793 -15.4258 -15.3906 -15.4375h-0.0234375c-8.50098 0 -15.4023 6.88574 -15.4141 15.3906c-0.342773 231.141 -0.342773 403.27 -0.342773 688.442
c0 8.5127 6.90137 15.4141 15.4141 15.4141s15.4141 -6.90137 15.4141 -15.4141zM66.0977 388.258c-8.50098 0 -15.3994 6.88281 -15.4111 15.3877c-0.0273438 15.6875 -0.211914 29.5986 -0.381836 42.4688c-0.443359 33.8984 -0.797852 60.6719 1.94238 93.6992
c0.701172 8.48535 8.2041 14.79 16.6318 14.0889c8.48535 -0.705078 14.793 -8.15039 14.0879 -16.6357c-2.61621 -31.5518 -2.27344 -57.6738 -1.8418 -90.748c0.173828 -12.9785 0.354492 -27.0049 0.385742 -42.8193
c0.015625 -8.5127 -6.87012 -15.4258 -15.3857 -15.4414h-0.0273438z" />
    <glyph glyph-name="cent" unicode="&#xa2;" horiz-adv-x="413" 
d="M348.644 170.527c8.39258 -1.41016 14.0557 -9.36133 12.6572 -17.75c-12.3848 -73.6387 -46.5459 -130.735 -91.377 -152.734c-11.4062 -5.59863 -23.5488 -8.82422 -35.9648 -9.8457c0.0195312 -20.25 0.0429688 -40.7695 0.0703125 -61.7246
c0.0117188 -8.5127 -6.88184 -15.4219 -15.3945 -15.4336h-0.0195312c-8.50488 0 -15.4062 6.88574 -15.4141 15.3945c-0.0273438 21.6445 -0.0507812 42.8271 -0.0742188 63.7246c-20.6504 4.29297 -41.0508 14.458 -59.1846 30.1836
c-40.623 35.2314 -62.1982 88.1465 -73.1455 126.33c-12.3154 42.9658 -18.8086 91.6846 -20.4307 153.316c-3.43359 130.234 17.3906 246.038 60.2139 334.895c22.8203 47.3428 48.1182 75.7578 77.3428 86.8633c4.92871 1.87305 9.92285 3.29102 14.9326 4.32031v44.2842
c0 8.5127 6.90137 15.4141 15.4141 15.4141s15.4141 -6.90137 15.4141 -15.4141v-43.1816c21.8027 -2.86719 42.5146 -13.4482 58.8799 -31.085c21.7676 -23.4561 38.8379 -61.1387 52.1748 -115.198c9.97656 -40.4268 14.0225 -82.7139 17.9375 -123.61
c0.80957 -8.47363 -5.40234 -16.0029 -13.876 -16.8125c-8.48926 -0.824219 -16.0039 5.40332 -16.8135 13.877c-3.80762 39.7871 -7.74609 80.9297 -17.1797 119.159c-11.8877 48.1719 -26.9736 82.3594 -44.8418 101.611
c-10.2422 11.0361 -22.9004 18.0645 -36.2871 20.7461c0 -269.312 0.0195312 -456.936 0.239258 -676.824c7.72266 0.948242 15.252 3.16406 22.415 6.67871c35.4053 17.3711 63.9746 67.2539 74.5557 130.173c1.41406 8.39648 9.36719 14.0537 17.7559 12.6436z
M164.132 45.6279c12.3115 -10.6777 25.5791 -17.999 38.9541 -21.8799c-0.219727 218.289 -0.239258 405.173 -0.239258 672.523c-1.33301 -0.412109 -2.66211 -0.84375 -3.9834 -1.34473c-21.1973 -8.05371 -41.5625 -32.0879 -60.5215 -71.4316
c-40.7041 -84.4561 -60.4727 -195.35 -57.1699 -320.698c1.55273 -58.9609 7.67188 -105.232 19.251 -145.632c13.8496 -48.3027 36.4727 -87.916 63.709 -111.537z" />
    <glyph glyph-name="sterling" unicode="&#xa3;" horiz-adv-x="395" 
d="M328.886 2.91406c8.49316 0.546875 15.8242 -5.89258 16.375 -14.3857s-5.88867 -15.8262 -14.3857 -16.377c-27.1895 -1.76074 -74.0049 -2.62793 -116.165 -2.62793c-44.3564 0 -83.5732 0.962891 -89.4424 2.85156c-5.49121 1.76855 -9.85742 4.7627 -12.9863 8.89746
c-8.75488 11.5986 -4.68945 26.9004 -2.95117 33.4355c24.4033 91.877 24.8926 192.833 25.3662 290.468c0.0195312 4.28906 0.0429688 8.58984 0.0664062 12.8906c-22.6738 -0.508789 -45.3164 -1.85352 -67.8398 -4.06543
c-8.4541 -0.828125 -16.0146 5.36035 -16.8467 13.834s5.36426 16.0146 13.834 16.8467c23.5986 2.31934 47.3281 3.70312 71.085 4.21582c0.732422 72.791 3.36035 146.758 17.3096 217.614c5.59863 28.4463 15.6025 69.8711 37.7217 101.088
c24.2959 34.292 59.8164 49.0742 90.4785 37.6562c36.8076 -13.7031 56.7842 -61.7861 57.4971 -102.201c0.150391 -8.5127 -6.62793 -15.5332 -15.1406 -15.6836c-8.4541 -0.173828 -15.5332 6.62793 -15.6836 15.1406c-0.59375 33.8174 -17.0361 66.2598 -37.4287 73.8506
c-19.5293 7.27148 -41.4824 -8.11523 -54.5723 -26.5889c-18.6973 -26.3848 -27.5752 -63.5547 -32.627 -89.2188c-13.418 -68.1445 -16.0039 -140.323 -16.7324 -211.546c27.0283 -0.308594 54.041 -1.71484 80.8838 -4.3623
c8.46973 -0.835938 14.6582 -8.38086 13.8262 -16.8506c-0.786133 -7.95703 -7.49121 -13.9033 -15.3213 -13.9033c-0.504883 0 -1.01367 0.0273438 -1.53027 0.0771484c-25.9141 2.55469 -51.9941 3.91504 -78.0898 4.21582
c-0.0234375 -4.39258 -0.046875 -8.78516 -0.0664062 -13.1631c-0.481445 -99.5762 -0.978516 -202.54 -26.3994 -298.236c-0.574219 -2.17285 -0.928711 -3.83008 -1.14062 -5.08203c26.1338 -1.50293 135.625 -2.37012 190.906 1.20996z" />
    <glyph glyph-name="currency" unicode="&#xa4;" horiz-adv-x="400" 
d="M348.057 50.9863c3.68359 -7.67188 0.452148 -16.8789 -7.21582 -20.5547c-2.15039 -1.03223 -4.42383 -1.52148 -6.65918 -1.52148c-5.74512 0 -11.2559 3.22559 -13.9072 8.74707c-17.7725 37.0195 -36.1455 73.9697 -54.958 110.682
c-5.30273 -7.33301 -11.1719 -13.8877 -17.665 -19.4521c-16.1807 -13.8643 -35.8564 -20.8779 -54.7578 -20.8779c-16.9629 0 -33.3057 5.64551 -45.9375 17.0596c-5.66406 5.12109 -10.8281 11.0703 -15.5605 17.6484
c-17.8066 -34.8584 -35.2168 -69.9287 -52.0791 -105.061c-2.65137 -5.52148 -8.16602 -8.74707 -13.9072 -8.74707c-2.23926 0 -4.50879 0.489258 -6.65918 1.52148c-7.67578 3.68359 -10.9092 12.8936 -7.22559 20.5654c19.9951 41.6514 40.7109 83.2334 62.001 124.465
c-24.1377 58.3867 -26.2383 140.865 -10.8281 203.091c3.29102 13.29 7.30273 25.4092 11.9072 36.3916c-19.2598 28.7119 -39.167 55.4121 -60.8691 80.6289c-5.55273 6.4502 -4.82422 16.1836 1.62598 21.7363c6.4541 5.55664 16.1875 4.82422 21.7363 -1.62598
c19.1592 -22.2646 36.9082 -45.5547 54.0059 -70.2168c13.4219 19.2207 29.7725 31.7637 48.3691 36.5c33.4746 8.51953 63.6436 -5.87695 86.1787 -40.5732c17.9648 26.1768 36.6113 50.7998 56.8262 74.2861c5.55273 6.4502 15.2822 7.18262 21.7363 1.62598
c6.4502 -5.55273 7.17871 -15.2822 1.62598 -21.7363c-22.9355 -26.6504 -43.8672 -54.9502 -64.1475 -85.5391c26.5117 -66.0166 28.8389 -162.857 1.4834 -229.04c22.2998 -43.0469 43.9912 -86.4824 64.8809 -130.003zM187.086 452.089
c-14.0264 -3.56836 -26.7734 -15.7021 -37.1777 -34.6494c16.7666 -25.8408 33.1514 -53.25 49.8828 -82.5635c15.7256 27.5518 31.1504 53.4043 46.8682 77.8662c-0.130859 0.261719 -0.253906 0.542969 -0.388672 0.800781
c-16.3154 31.4209 -36.2412 44.3955 -59.1846 38.5459zM133.084 212.899c15.4365 29.2627 31.1309 58.3145 47.0566 87.0303c0.670898 1.20996 1.33008 2.37793 1.99707 3.58008c-15.7256 27.9678 -31.0078 54.1406 -46.4365 78.8262
c-1.0791 -3.62988 -2.11914 -7.33301 -3.0752 -11.1943c-11.9727 -48.334 -12.3428 -109.773 0.458008 -158.242zM227.588 152.29c8.33496 7.14453 15.4336 16.5947 21.3486 27.708c-16.0879 30.8311 -32.4883 61.4307 -49.1426 91.6914
c-17.6641 -32.0947 -35.0391 -64.5635 -52.0635 -97.2871c5.61426 -10.5088 12.2188 -19.5293 19.8906 -26.4619c16.7275 -15.1133 43.624 -9.65723 59.9668 4.34961zM263.418 218.714c12.3076 48.4951 10.6973 109.792 -2.97852 158.075
c-14.2617 -23.0508 -28.4346 -47.3926 -42.9893 -73.2803c0.666992 -1.20215 1.32617 -2.37402 1.99707 -3.58008c14.8701 -26.8086 29.5244 -53.9209 43.9707 -81.2148z" />
    <glyph glyph-name="yen" unicode="&#xa5;" horiz-adv-x="533" 
d="M468.209 192.249c8.50879 -0.204102 15.2412 -7.27539 15.0371 -15.7881c-0.204102 -8.38086 -7.06348 -15.04 -15.4023 -15.04c-0.126953 0 -0.253906 0 -0.380859 0.00390625c-86.5557 2.10352 -134.716 2.38477 -177.608 2.03418
c-0.03125 -71.5732 -0.0927734 -138.299 -0.211914 -160.147c-0.0498047 -8.48535 -6.93945 -15.3291 -15.4131 -15.3291h-0.0859375c-8.5127 0.0458984 -15.376 6.98633 -15.3301 15.499c0.119141 21.7646 0.180664 88.2402 0.211914 159.629
c-7.50684 -0.104492 -15.1016 -0.219727 -22.9707 -0.338867c-39.7559 -0.604492 -89.2334 -1.35254 -170.641 -1.35254c-8.5127 0 -15.4141 6.90137 -15.4141 15.4141s6.90137 15.4141 15.4141 15.4141c81.1729 0 130.52 0.748047 170.175 1.34961
c8.03418 0.123047 15.7832 0.238281 23.4473 0.345703c0.0078125 32.4463 0.0117188 64.7227 0.015625 93.207c-7.51465 -0.104492 -15.1211 -0.219727 -22.9971 -0.338867c-39.7559 -0.604492 -89.2344 -1.35254 -170.642 -1.35254
c-8.5127 0 -15.4141 6.90137 -15.4141 15.4141s6.90137 15.4141 15.4141 15.4141c81.1729 0 130.52 0.748047 170.175 1.34961c8.04199 0.123047 15.7988 0.238281 23.4668 0.345703v42.1104c-14.9785 21.3906 -50.2412 88.6758 -158.754 311.011
c-3.73438 7.64941 -0.55957 16.8779 7.08984 20.6123c7.64941 3.73828 16.8779 0.563477 20.6123 -7.08984c30.0801 -61.6279 112.602 -230.713 145.448 -289.535c24.7617 50.8418 84.9834 174.545 146.831 301.928c3.71875 7.65723 12.9365 10.8477 20.5967 7.13281
c7.65723 -3.71875 10.8516 -12.9404 7.13281 -20.5977c-76.8955 -158.368 -151.274 -311.057 -158.134 -325.137v-40.083c43.0732 0.34668 91.4727 0.0654297 178.325 -2.0459c8.5127 -0.208008 15.2451 -7.27539 15.0371 -15.7842
c-0.204102 -8.38086 -7.06348 -15.04 -15.4023 -15.04c-0.126953 0 -0.253906 0 -0.380859 0.00390625c-86.5361 2.10352 -134.692 2.38477 -177.577 2.03418c0 -28.4688 -0.00390625 -60.7412 -0.015625 -93.2061c43.0811 0.350586 91.4805 0.0654297 178.345 -2.0459z" />
    <glyph glyph-name="section" unicode="&#xa7;" horiz-adv-x="340" 
d="M285.259 225.615c4.21582 -49.96 -10.5791 -98.9434 -37.7109 -125.231c7.42578 -15.7568 14.2852 -33.2168 19.0479 -51.9834c9.77637 -38.5342 9.1748 -77.084 -1.68848 -108.551c-14.0996 -40.8271 -47.4854 -71.3271 -85.0527 -77.6973
c-5.42188 -0.920898 -10.9092 -1.37598 -16.4424 -1.37598c-28.3115 0 -57.6904 11.9189 -84.2793 34.4922c-6.48926 5.51074 -7.28711 15.2363 -1.77637 21.7256c5.51465 6.48926 15.2373 7.28711 21.7305 1.77637c24.7158 -20.9893 51.5703 -30.2988 75.6123 -26.2256
c26.627 4.5127 50.5957 27.0322 61.0693 57.3662c8.79785 25.4746 9.14062 58.6104 0.948242 90.9102c-8.29297 32.6729 -24.123 61.8008 -36.9854 83.5264c-22.1152 37.3438 -47.0195 71.9785 -74.0205 102.944c-4 4.58594 -8.0498 9.10645 -12.1074 13.6309
c-17.5293 19.5596 -35.6602 39.7861 -49.6982 65.4502c-17.5371 32.0762 -30.8311 141.475 40.377 221.865c0.389648 0.443359 0.844727 0.786133 1.26855 1.17188c-8.64746 27.2051 -13.915 54.3105 -15.7227 81.165c-2.50488 37.2549 2.02637 72.0859 13.1016 100.725
c15.9258 41.1895 46.3252 71.3691 81.3145 80.7334c35.4746 9.49121 74.3633 -3.55273 101.534 -34.0293c5.66797 -6.35449 5.10547 -16.0996 -1.24512 -21.7637c-6.35449 -5.66113 -16.0957 -5.10645 -21.7598 1.24805c-19.6758 22.0605 -46.0449 31.3164 -70.5566 24.7617
c-25.1318 -6.72461 -48.3252 -30.5117 -60.5332 -62.0713c-9.45996 -24.4727 -13.2979 -54.7412 -11.0938 -87.5381c3.72656 -55.374 23.7217 -112.335 59.4355 -169.296c8.71289 -13.8916 18.1768 -27.5791 27.3291 -40.8154
c12.2422 -17.7061 24.9004 -36.0176 36.334 -55.5771c24.6348 -42.1562 38.2373 -81.8467 41.5703 -121.337zM232.338 129.558c16.4619 21.3633 25.251 57.3154 22.1992 93.4609c-2.94043 34.8193 -15.1982 70.2705 -37.4668 108.377
c-10.8477 18.5508 -23.167 36.3691 -35.082 53.6016c-9.34473 13.5137 -19.0088 27.4902 -28.084 41.9717c-14.4043 22.9775 -26.4385 46.0176 -36.0723 69.0303c-48.6533 -65.8086 -39.6514 -151.475 -26.877 -174.834c12.3193 -22.5352 28.4922 -40.5732 45.6055 -59.667
c4.15039 -4.62793 8.29688 -9.25586 12.3857 -13.9453c28.2344 -32.377 54.2451 -68.541 77.3115 -107.495c1.96875 -3.3252 4.01074 -6.85449 6.08008 -10.5z" />
    <glyph glyph-name="copyright" unicode="&#xa9;" horiz-adv-x="577" 
d="M286.188 561.685c-11.6641 -4.43164 -23.1807 -18.3164 -34.2363 -41.2676c-24.7812 -51.4121 -36.8115 -119.094 -34.792 -195.727c0.944336 -35.9717 4.65918 -64.1406 11.6836 -88.6484c8.25781 -28.8047 21.6172 -52.3145 37.624 -66.1943
c16.1768 -14.0303 35.1045 -17.8643 50.6064 -10.25c19.9336 9.78418 36.7812 39.71 42.9316 76.248c1.41016 8.39648 9.37891 14.0537 17.752 12.6436c8.39258 -1.41016 14.0566 -9.36328 12.6426 -17.7559c-7.97656 -47.4238 -30.3115 -84.3633 -59.7441 -98.8057
c-9.49902 -4.66309 -19.7334 -6.94434 -30.1221 -6.94434c-18.6973 0 -37.9023 7.38672 -54.2676 21.5791c-26.2305 22.7471 -40.0684 56.5996 -47.0586 80.9922c-7.76074 27.0742 -11.8496 57.6855 -12.8711 96.3281c-2.14648 81.5195 10.9395 154.11 37.8398 209.928
c14.8086 30.7119 31.5098 49.2549 51.0625 56.6885c25.0859 9.5332 52.3447 2.87793 71.1416 -17.376c14.1729 -15.2676 25.1855 -39.4287 33.6826 -73.8711c6.27734 -25.4365 8.80176 -51.8174 11.2412 -77.3311c0.813477 -8.47363 -5.40234 -16.0029 -13.876 -16.8125
c-8.37695 -0.80957 -15.999 5.39844 -16.8086 13.876c-2.33887 24.4072 -4.75098 49.6436 -10.4883 72.8838c-7.10938 28.8271 -15.9766 49.1074 -26.3457 60.2861c-10.084 10.8594 -24.4805 14.5166 -37.5977 9.53027zM484.737 549.453
c73.6279 -171.347 55.4639 -431.989 -88.335 -532.048c-32.2725 -22.4541 -77.0303 -37.4092 -121.61 -37.4092c-33.999 0 -67.9014 8.69336 -96.1045 29.3867c-55.2432 40.5303 -95.0371 109.672 -115.087 199.958c-18.1768 81.8623 -18.1309 173.085 0.126953 256.862
c28.9736 132.963 96.624 219.773 185.607 238.162c98.5596 20.3574 184.349 -36.0957 235.402 -154.912zM378.8 42.7158c127.838 88.9482 146.411 334.471 77.6201 494.569c-21.1709 49.2656 -83.1221 161.22 -200.841 136.893
c-75.3926 -15.583 -135.849 -95.7803 -161.729 -214.535c-31.8604 -146.191 -6.55859 -344.967 103.075 -425.399c51.709 -37.9336 133.078 -25.4795 181.874 8.47266z" />
    <glyph glyph-name="softhyphen" unicode="&#xad;" horiz-adv-x="0" 
 />
    <glyph glyph-name="registered" unicode="&#xae;" horiz-adv-x="577" 
d="M484.74 549.454c73.6279 -171.343 55.46 -431.988 -88.3389 -532.047c-32.2725 -22.4541 -77.0264 -37.4092 -121.61 -37.4092c-33.999 0 -67.8975 8.69336 -96.1045 29.3867c-55.2432 40.5264 -95.0371 109.668 -115.087 199.954
c-18.1768 81.8584 -18.1309 173.081 0.126953 256.862c28.9775 132.963 96.6279 219.772 185.611 238.161c98.5479 20.3613 184.345 -36.0957 235.402 -154.908zM378.795 42.7168c127.842 88.9482 146.419 334.47 77.624 494.568
c-19.1357 44.5342 -71.6045 140.308 -168.468 140.308c-10.2891 0 -21.0674 -1.0791 -32.3691 -3.41406c-75.3926 -15.5791 -135.853 -95.7803 -161.732 -214.535c-31.8604 -146.191 -6.55859 -344.967 103.075 -425.399c51.7051 -37.9336 133.082 -25.4834 181.87 8.47266z
M387.819 407.332c2.59766 -106.647 -38.2119 -149.206 -77.1465 -168.643c10.9824 -0.469727 22.7627 -2.49316 33.6367 -9.24805c15.6758 -9.7373 23.8721 -25.9639 27.9834 -37.8594c4.73633 -13.7148 6.40918 -27.6104 8.02344 -41.0508
c1.01758 -8.4502 -5.0127 -16.126 -13.4668 -17.1396c-0.620117 -0.0732422 -1.24023 -0.111328 -1.85254 -0.111328c-7.69141 0 -14.3467 5.74902 -15.2871 13.5752c-1.41797 11.8301 -2.88965 24.0605 -6.54688 34.6533
c-3.51074 10.1465 -8.88281 17.8691 -15.1172 21.7461c-7.11328 4.41992 -17.04 4.86328 -25.8301 4.72461c-18.6738 -0.304688 -37.2979 -3.14844 -55.3516 -8.45508c-1.93066 -0.566406 -3.88086 -0.708984 -5.77246 -0.53125
c0.0195312 -18.2656 0.046875 -36.9316 0.0742188 -56.3145c0.0117188 -8.5127 -6.87793 -15.4258 -15.3906 -15.4375h-0.0234375c-8.50488 0 -15.4023 6.88574 -15.4141 15.3906c-0.200195 135.914 -0.200195 237.132 -0.200195 404.821
c0 3.0791 0.928711 5.93457 2.48535 8.34277c2.1582 4.87109 6.72852 8.52051 12.4121 9.12598c59.0039 6.27734 102.513 -6.9707 129.29 -39.3857c26.1836 -31.6904 32.3223 -70.1709 33.4941 -118.204zM257.236 252.971c38.4805 9.44824 102.891 25.2656 99.7578 153.611
c-1.00977 41.6289 -5.89551 74.4521 -26.4424 99.3184c-17.9844 21.7754 -48.1064 31.6016 -89.5889 29.3555c0 -115.456 0.00390625 -199.418 0.0771484 -286.806c4.65137 1.66504 10.0117 3.00195 16.1963 4.52051z" />
    <glyph glyph-name="mu" unicode="&#xb5;" horiz-adv-x="422" 
d="M366.855 627.725c-0.150391 -86.9297 -0.293945 -169.038 4.64258 -244.854c0.554688 -8.49316 -5.88477 -15.8262 -14.3779 -16.3809c-0.342773 -0.0234375 -0.681641 -0.0351562 -1.0166 -0.0351562c-8.05762 0 -14.832 6.26172 -15.3643 14.416
c-4.99805 76.8408 -4.85547 159.447 -4.70508 246.904c0.015625 8.77051 0.03125 17.583 0.0429688 26.4189c-11.7295 -61.0381 -27.209 -120.204 -49.7822 -165.559c-24.2959 -48.7998 -52.3799 -74.1514 -83.4805 -75.3496
c-20.916 -0.801758 -41.7285 9.78711 -58.9844 29.8057c-12.458 14.4502 -22.9434 33.3242 -32.9971 59.3965c-12.0342 31.209 -21.6211 67.2461 -30.002 112.863c0.0078125 -308.821 0.0576172 -533.411 0.338867 -817.906
c0.0078125 -8.5127 -6.88574 -15.4219 -15.3984 -15.4297h-0.015625c-8.50488 0 -15.4062 6.88965 -15.4141 15.3984c-0.342773 344.816 -0.342773 601.609 -0.342773 1027.04c0 8.5127 6.90137 15.4141 15.4141 15.4141s15.4141 -6.90137 15.4141 -15.4141v-9.2334
c0.0810547 -0.431641 0.21582 -0.839844 0.261719 -1.2832c5.72266 -56.0518 15.8262 -112.975 25.6025 -168.021l3.10547 -17.5137c8.3584 -47.293 17.8262 -83.7773 29.7988 -114.824c8.73926 -22.6699 17.5059 -38.6729 27.5791 -50.3604
c10.5312 -12.2188 22.6777 -19.1475 33.4824 -19.1475c0.323242 0 0.643555 0.0078125 0.959961 0.0195312c18.4541 0.708984 38.7197 21.4092 57.0732 58.2822c38.3457 77.0381 55.6055 200.475 69.4736 299.658c1.8916 13.541 3.72168 26.666 5.54785 39.209
c1.14062 7.87988 8.02637 13.6064 16.0605 13.1748c7.95312 -0.416016 14.2803 -6.82812 14.5928 -14.7852c2.73633 -69.585 2.61328 -141.937 2.49023 -211.907z" />
    <glyph glyph-name="paragraph" unicode="&#xb6;" horiz-adv-x="348" 
d="M297.495 824.462c0 -425.427 0.00195312 -682.213 0.34082 -1027.01c0.0078125 -8.5127 -6.88574 -15.4219 -15.3984 -15.4297h-0.015625c-8.50879 0 -15.4062 6.88965 -15.4141 15.3984c-0.21582 219.222 -0.292969 402.876 -0.320312 616.896
c-0.227539 -0.0117188 -0.439453 -0.0654297 -0.670898 -0.0654297c-0.177734 0 -0.351562 0.00390625 -0.525391 0.0078125c-25.4131 0.847656 -50.1641 4.28906 -73.2842 10.0039c0.0273438 -218.289 0.104492 -404.213 0.324219 -626.811
c0.0078125 -8.5127 -6.88574 -15.4219 -15.3984 -15.4297h-0.015625c-8.50879 0 -15.4062 6.88965 -15.4141 15.3984c-0.219727 225.776 -0.296875 413.82 -0.324219 636.171c-13.6416 4.96289 -26.4385 10.8047 -38.1025 17.4785
c-42.4766 24.3076 -69.0078 59.1699 -72.7959 95.6543c-2.68164 25.8223 5.8457 53.1357 24.666 78.9805c14.9785 20.5693 36.4229 40.5342 65.5625 61.042c6.8125 4.79785 13.7139 9.2832 20.6543 13.6182v124.1c0 8.5127 6.90137 15.4141 15.4141 15.4141
s15.4141 -6.90137 15.4141 -15.4141v-106.565c20.9668 10.7705 42.3496 19.5449 63.998 26.084c3.73828 1.12891 7.20605 1.84961 10.4775 2.25v78.2324c0 8.5127 6.90137 15.4141 15.4141 15.4141s15.4141 -6.90137 15.4141 -15.4141zM138.586 477.822
c7.11719 -4.07324 14.7568 -7.78027 22.7871 -11.1523c-0.00390625 62.2295 -0.0078125 127.356 -0.0078125 196.838c-0.970703 -0.674805 -1.94531 -1.29492 -2.91602 -1.97656c-26.3262 -18.5312 -45.4238 -36.1875 -58.3789 -53.9785
c-9.94531 -13.6562 -21.2979 -34.75 -18.9238 -57.6514c2.70898 -26.0996 24.1846 -53.0469 57.4395 -72.0791zM266.514 445.064c0.0537109 0 0.108398 -0.0185547 0.166016 -0.0224609c-0.0078125 83.7041 -0.0117188 172.398 -0.0117188 269.852
c-0.504883 -0.134766 -0.974609 -0.25 -1.56445 -0.427734c-25.0938 -7.58008 -49.1855 -18.0459 -72.9111 -31.5479c0.00390625 -80.8145 0.00390625 -155.671 0.0117188 -226.832c23.0439 -6.35059 48.2334 -10.1504 74.3096 -11.0215z" />
    <glyph glyph-name="questiondown" unicode="&#xbf;" 
d="M284.938 203.562c26.4033 -26.8545 18.1914 -76.665 15.0391 -91.2852c-17.4365 -81.0342 -74.4561 -144.284 -138.654 -153.813c-5.4834 -0.817383 -10.8047 -1.22168 -15.9492 -1.22168c-15.5176 0 -29.4629 3.69531 -41.6016 11.0518
c-25.332 15.3486 -44.3721 48.9238 -50.9268 89.8125c-6.27734 39.1396 -0.867188 79.2812 3.74512 106.07c10.0732 58.4951 27.3594 114.875 44.0791 169.401c21.0781 68.7295 42.873 139.802 49.3545 213.711c0.744141 8.47754 8.23535 14.751 16.7012 14.0068
c8.47754 -0.744141 14.751 -8.21973 14.0068 -16.7012c-6.7627 -77.1494 -29.0391 -149.798 -50.5879 -220.058c-16.4346 -53.6016 -33.4316 -109.029 -43.1689 -165.594c-4.24219 -24.623 -9.23633 -61.3574 -3.69141 -95.957
c5.06738 -31.5869 19.04 -57.7705 36.4688 -68.3291c9.85352 -5.96875 22.3076 -7.8877 37.0469 -5.70312c51.7627 7.6875 98.2471 61.0615 113.044 129.807c5.93066 27.5713 3.16406 52.9697 -6.88965 63.1924c-5.96875 6.06934 -5.88379 15.8301 0.185547 21.7949
s15.8262 5.8877 21.7988 -0.185547zM170.074 624.371c-8.5127 0.0810547 -15.3486 7.04395 -15.2715 15.5566l0.605469 65.501c0.0771484 8.46191 6.9668 15.2705 15.4092 15.2705h0.141602c8.5127 -0.0771484 15.3525 -7.04004 15.2754 -15.5527l-0.605469 -65.5049
c-0.0771484 -8.46191 -6.9668 -15.2705 -15.4092 -15.2705h-0.145508z" />
    <glyph glyph-name="Agrave" unicode="&#xc0;" horiz-adv-x="367" 
d="M125.753 791.55c-5.18262 0 -10.2422 2.61328 -13.1553 7.35254c-4.45117 7.25195 -2.18164 16.7432 5.07422 21.1973c47.4707 29.1357 97.5039 51.1309 148.716 65.377c8.22363 2.28906 16.7051 -2.51953 18.9824 -10.7158
c2.28516 -8.2041 -2.5166 -16.7012 -10.7168 -18.9824c-48.4453 -13.4756 -95.835 -34.3184 -140.854 -61.9512c-2.5127 -1.54102 -5.29883 -2.27734 -8.0459 -2.27734zM357.702 1.58203c0.871094 -8.46973 -5.28906 -16.043 -13.7549 -16.9141
c-0.535156 -0.0537109 -1.07031 -0.0810547 -1.59863 -0.0810547c-7.80273 0 -14.4961 5.90332 -15.3135 13.834c-2.64355 25.6602 -5.29883 61.9326 -8.37793 103.932c-7.83008 106.905 -18.5576 253.316 -39.5244 372.218
c-1.125 6.38867 -2.26172 12.5469 -3.40234 18.5312c-22.3848 -0.554688 -39.8174 -1.05176 -54.4297 -1.47168c-30.5928 -0.875 -49.2432 -1.40723 -76.5371 -1.40723c-12.416 0 -26.6543 0.111328 -44.5762 0.350586
c-2.60059 -11.3369 -5.18262 -23.3438 -7.7373 -36.1182c-24.6465 -123.225 -38.0488 -270.379 -46.916 -367.759c-3.51855 -38.623 -6.29688 -69.1309 -8.84375 -88.1094c-1.13281 -8.43555 -8.87402 -14.374 -17.3281 -13.2256
c-8.43555 1.13281 -14.3584 8.89355 -13.2256 17.3291c2.45898 18.3232 5.21387 48.542 8.69727 86.8027c26.5811 291.894 64.3604 603.952 176.818 611.586c104.764 7.00977 134.428 -278.078 157.753 -596.476c3.05566 -41.752 5.69922 -77.8125 8.29688 -103.021z
M220.414 522.445c13.4258 0.381836 29.2168 0.835938 49.0195 1.33691c-29.4902 133.757 -62.0977 147.479 -75.6963 146.542c-19.0166 -1.29102 -53.2773 -23.918 -86.0273 -149.02c51.2812 -0.616211 70.5596 -0.0654297 112.704 1.14062z" />
    <glyph glyph-name="AE" unicode="&#xc6;" horiz-adv-x="632" 
d="M610.711 225.469c8.4541 -1.00977 14.4902 -8.67578 13.4844 -17.1299c-13.7139 -115.198 -36.4873 -228.143 -148.672 -233.873c-1.4873 -0.0771484 -2.97461 -0.115234 -4.44629 -0.115234c-53.6094 0 -94.6484 49.8438 -119.873 105.73
c2.31934 -31.332 4.42285 -58.3828 6.49609 -78.5059c0.871094 -8.46973 -5.28711 -16.0381 -13.7529 -16.9131c-0.535156 -0.0537109 -1.07031 -0.0810547 -1.59863 -0.0810547c-7.80273 0 -14.4961 5.90332 -15.3135 13.834
c-2.64355 25.6602 -5.29883 61.9365 -8.37793 103.935c-7.83008 106.901 -18.5576 253.316 -39.5244 372.214c-1.12891 6.38867 -2.26562 12.5469 -3.40625 18.5312c-22.3848 -0.554688 -39.8174 -1.05176 -54.4297 -1.47168
c-30.5889 -0.875 -49.2432 -1.40723 -76.5371 -1.40723c-12.4121 0 -26.6543 0.111328 -44.5762 0.350586c-2.60059 -11.3369 -5.18262 -23.3477 -7.7373 -36.126c-24.6426 -123.225 -38.0449 -270.383 -46.9121 -367.763
c-3.51465 -38.6191 -6.29297 -69.123 -8.83984 -88.0977c-1.13281 -8.43555 -8.86621 -14.374 -17.3281 -13.2256c-8.43555 1.13281 -14.3584 8.89355 -13.2256 17.3291c2.45898 18.3232 5.20996 48.5381 8.69336 86.791c26.5811 291.901 64.3564 603.964 176.814 611.602
c1.2793 0.0849609 2.55469 0.130859 3.81445 0.130859c65.2578 0 100.651 -116.085 123.729 -282.341c8.92871 74.4521 27.1709 141.328 54.2139 197.438c22.8203 47.3428 48.1182 75.7578 77.3428 86.8633c36.8545 14.0068 76.9531 4.17285 104.644 -25.6641
c29.7793 -32.0879 51.9824 -94.9023 59.3887 -168.036c0.439453 -4.33105 -0.974609 -8.64258 -3.8877 -11.876s-7.05957 -5.08301 -11.4141 -5.09082c-1.9541 -0.00390625 -179.709 -0.350586 -236.323 -0.0849609c-14.6162 -62.8994 -21.1592 -133.868 -19.1475 -210.193
c1.55273 -58.957 7.67188 -105.232 19.251 -145.632c14.377 -50.1445 53.9941 -134.176 110.689 -131.336c70.5869 3.60645 101.893 57.7051 119.634 206.729c1.00977 8.4541 8.68555 14.4883 17.1279 13.4863zM401.183 602.926
c-11.7842 -24.4463 -21.8135 -51.1191 -30.0371 -79.708c51.0234 -0.162109 166.992 0.0078125 210.956 0.0849609c-9.42578 68.8916 -31.1553 113.688 -49.3008 133.236c-18.9746 20.4463 -46.2109 27.2744 -71.0967 17.8184
c-21.1973 -8.05371 -41.5625 -32.0879 -60.5215 -71.4316zM220.419 522.448c13.4219 0.381836 29.2178 0.835938 49.0166 1.33691c-29.498 133.757 -62.1328 147.479 -75.6973 146.542c-19.0127 -1.29102 -53.2773 -23.918 -86.0273 -149.02
c51.2812 -0.616211 70.5596 -0.0654297 112.708 1.14062z" />
    <glyph glyph-name="Ccedilla" unicode="&#xc7;" horiz-adv-x="332" 
d="M311.885 225.469c8.4502 -1.00977 14.4873 -8.67676 13.4814 -17.1309c-11.9922 -100.725 -30.9121 -199.727 -110.474 -226.839c9.32129 -51.4971 19.082 -102.829 29.2549 -153.667c1.67285 -8.35059 -3.74121 -16.4697 -12.0879 -18.1426
c-1.02539 -0.204102 -2.04297 -0.304688 -3.04492 -0.304688c-7.19434 0 -13.6299 5.06738 -15.0977 12.3926c-10.1533 50.7344 -19.8945 101.962 -29.2002 153.352c-2.63965 -0.265625 -5.2832 -0.523438 -8.02637 -0.662109
c-1.4873 -0.0771484 -2.97461 -0.115234 -4.44629 -0.115234c-68.8105 0 -116.921 82.1318 -137.448 153.744c-12.3154 42.9697 -18.8086 91.6885 -20.4307 153.316c-3.43359 130.238 17.3906 246.045 60.2139 334.897c22.8203 47.3428 48.1182 75.7578 77.3389 86.8633
c36.8545 14.0068 76.9531 4.17285 104.644 -25.6641c27.0244 -29.1201 47.8525 -85.3574 58.6465 -158.346c1.24512 -8.41992 -4.56934 -16.2578 -12.9932 -17.5029c-8.4043 -1.24121 -16.2578 4.56934 -17.5029 12.9932c-9.74512 65.9209 -28.2451 117.634 -50.7451 141.88
c-18.9746 20.4463 -46.2188 27.2744 -71.0967 17.8184c-21.1943 -8.05371 -41.5557 -32.0879 -60.5186 -71.4316c-40.7041 -84.4482 -60.4727 -195.346 -57.1699 -320.698c1.55273 -58.957 7.66797 -105.232 19.2471 -145.632
c14.373 -50.1445 54.0137 -134.177 110.689 -131.337c1.40625 0.0732422 2.77051 0.200195 4.14648 0.311523c-8.67383 48.9004 -16.959 97.8965 -24.751 146.731c-1.34082 8.4082 4.38574 16.3115 12.7939 17.6523c8.39648 1.3252 16.3076 -4.38574 17.6523 -12.7939
c7.6875 -48.2021 15.8604 -96.5547 24.415 -144.822c47.085 18.9707 70.8145 77.2998 85.3809 199.65c1.00977 8.4541 8.68945 14.4883 17.1289 13.4863z" />
    <glyph glyph-name="Egrave" unicode="&#xc8;" horiz-adv-x="333" 
d="M97.3604 791.55c-5.18262 0 -10.2422 2.61328 -13.1553 7.35254c-4.45117 7.25195 -2.18164 16.7432 5.07422 21.1973c47.4707 29.1357 97.5039 51.1309 148.716 65.377c8.22363 2.28906 16.7051 -2.51953 18.9824 -10.7158
c2.28516 -8.2041 -2.5166 -16.7012 -10.7168 -18.9824c-48.4453 -13.4756 -95.835 -34.3184 -140.854 -61.9512c-2.5127 -1.54102 -5.29883 -2.27734 -8.0459 -2.27734zM311.885 225.471c8.4502 -1.00977 14.4883 -8.67773 13.4785 -17.1357
c-13.7148 -115.198 -36.4883 -228.143 -148.673 -233.873c-1.4873 -0.0771484 -2.97461 -0.115234 -4.44629 -0.115234c-68.8105 0 -116.921 82.1318 -137.448 153.744c-12.3154 42.9697 -18.8086 91.6846 -20.4307 153.316
c-3.43359 130.238 17.3906 246.042 60.2139 334.898c22.8203 47.3428 48.1182 75.7578 77.3428 86.8633c36.8506 14.0068 76.9531 4.17285 104.644 -25.6641c29.7793 -32.0879 51.9824 -94.9023 59.3887 -168.036c0.439453 -4.33105 -0.974609 -8.64258 -3.8877 -11.876
s-7.05957 -5.08301 -11.4141 -5.09082c-1.9541 -0.00390625 -179.705 -0.350586 -236.323 -0.0849609c-14.6162 -62.8994 -21.1592 -133.868 -19.1475 -210.193c1.55273 -58.957 7.67188 -105.232 19.251 -145.632c14.373 -50.1445 53.9629 -134.176 110.689 -131.336
c70.5869 3.60645 101.893 57.7051 119.634 206.729c1.00977 8.4541 8.66309 14.4883 17.1289 13.4863zM102.354 602.926c-11.7842 -24.4463 -21.8174 -51.1191 -30.0371 -79.708c51.0195 -0.162109 166.992 0.0078125 210.956 0.0849609
c-9.42578 68.8916 -31.1553 113.688 -49.3008 133.236c-18.9746 20.4463 -46.2148 27.2744 -71.0967 17.8184c-21.1973 -8.05371 -41.5625 -32.0879 -60.5215 -71.4316z" />
    <glyph glyph-name="Igrave" unicode="&#xcc;" horiz-adv-x="91" 
d="M132.051 874.761c2.28125 -8.2002 -2.52051 -16.7002 -10.7207 -18.9814c-48.4453 -13.4756 -95.835 -34.3184 -140.854 -61.9512c-2.5127 -1.54102 -5.29883 -2.27734 -8.0459 -2.27734c-5.18262 0 -10.2422 2.6123 -13.1514 7.35156
c-4.45117 7.25195 -2.18164 16.7432 5.07422 21.1973c47.4707 29.1357 97.5039 51.1309 148.716 65.377c8.22363 2.28906 16.7051 -2.51953 18.9824 -10.7158zM44.8096 696.583c8.5127 0 15.4141 -6.90137 15.4141 -15.4141c0 -285.157 0 -457.278 0.338867 -688.396
c0.015625 -8.5127 -6.87793 -15.4258 -15.3906 -15.4375h-0.0234375c-8.50488 0 -15.4023 6.88184 -15.4141 15.3906c-0.338867 231.141 -0.338867 403.27 -0.338867 688.442c0 8.5127 6.90137 15.4141 15.4141 15.4141z" />
    <glyph glyph-name="Ntilde" unicode="&#xd1;" horiz-adv-x="346" 
d="M55.3018 806.582c-8.21973 2.22363 -13.082 10.6875 -10.8623 18.9072c6.9707 25.7754 25.2861 45.8057 46.6611 51.0273c11.9727 2.92871 23.5371 1.22168 33.2705 -0.835938c18.6504 -3.93066 37.0312 -10.4697 54.626 -19.4443
c4.13477 -2.11133 8.28125 -4.36914 12.4355 -6.63477c16.5156 -9.00977 32.1143 -17.5186 46.3447 -15.5918c13.9688 1.89941 27.7988 14.1152 38.2881 24.5508c6.03809 6.00781 15.7949 5.98047 21.7988 -0.0576172
c6.00391 -6.03418 5.97656 -15.7949 -0.0576172 -21.7988c-13.8994 -13.8301 -32.8193 -30.1074 -55.874 -33.2402c-2.81348 -0.385742 -5.5918 -0.563477 -8.33496 -0.563477c-20.9395 -0.00390625 -39.9326 10.3613 -56.9258 19.6328
c-3.89941 2.13086 -7.78711 4.25391 -11.6709 6.23438c-15.1787 7.74121 -30.9854 13.375 -46.9844 16.7471c-6.65918 1.40625 -13.6494 2.50488 -19.5918 1.05176c-10.2998 -2.5166 -20.2607 -14.4971 -24.2178 -29.1289
c-2.22363 -8.21973 -10.6895 -13.0869 -18.9053 -10.8555zM315.521 681.17c0 -285.157 -0.00292969 -457.279 0.335938 -688.404c0 -0.0966797 -0.0273438 -0.185547 -0.0273438 -0.27832c-0.0078125 -0.59375 -0.0966797 -1.17188 -0.173828 -1.75781
c-0.0576172 -0.435547 -0.0849609 -0.878906 -0.177734 -1.30273c-0.107422 -0.493164 -0.288086 -0.958984 -0.442383 -1.43652c-0.154297 -0.473633 -0.28125 -0.962891 -0.481445 -1.41797c-0.192383 -0.435547 -0.446289 -0.835938 -0.677734 -1.25195
c-0.243164 -0.443359 -0.462891 -0.902344 -0.751953 -1.31836c-0.289062 -0.423828 -0.643555 -0.793945 -0.974609 -1.18652c-0.304688 -0.358398 -0.582031 -0.736328 -0.916992 -1.06348c-0.354492 -0.34668 -0.762695 -0.639648 -1.15527 -0.956055
s-0.766602 -0.647461 -1.18652 -0.924805c-0.362305 -0.235352 -0.762695 -0.416016 -1.14844 -0.624023c-0.520508 -0.28125 -1.0332 -0.570312 -1.58789 -0.790039c-0.0849609 -0.0351562 -0.158203 -0.0888672 -0.24707 -0.124023
c-0.447266 -0.169922 -0.902344 -0.254883 -1.35352 -0.37793c-0.392578 -0.107422 -0.766602 -0.246094 -1.16699 -0.323242c-0.978516 -0.188477 -1.96094 -0.299805 -2.93555 -0.299805c-0.94043 0 -1.86914 0.111328 -2.78223 0.28125
c-0.285156 0.0537109 -0.558594 0.123047 -0.839844 0.192383c-0.624023 0.154297 -1.23242 0.342773 -1.83398 0.570312c-0.285156 0.104492 -0.566406 0.205078 -0.839844 0.328125c-0.740234 0.331055 -1.45703 0.716797 -2.13867 1.16016
c-0.0615234 0.0419922 -0.134766 0.0732422 -0.200195 0.115234c-0.744141 0.504883 -1.43359 1.08691 -2.08496 1.71875c-0.177734 0.169922 -0.332031 0.354492 -0.498047 0.532227c-0.451172 0.481445 -0.875 0.986328 -1.26465 1.5293
c-0.180664 0.24707 -0.350586 0.49707 -0.512695 0.754883c-0.327148 0.520508 -0.616211 1.06348 -0.885742 1.62988c-0.134766 0.285156 -0.285156 0.5625 -0.404297 0.859375c-0.0380859 0.0966797 -0.0957031 0.185547 -0.133789 0.286133
c-54.4336 143.771 -119.511 322.559 -171.798 466.219c-20.207 55.5166 -39.0352 107.253 -53.4121 146.346c0 -238.385 0.03125 -398.791 0.339844 -607.08c0.015625 -8.5127 -6.87793 -15.4258 -15.3906 -15.4375h-0.0234375
c-8.50488 0 -15.4023 6.88184 -15.4141 15.3906c-0.338867 231.141 -0.338867 403.27 -0.338867 688.442c0 8.5127 6.90137 15.4141 15.4141 15.4141c5.99609 0 11.1367 -3.45996 13.6836 -8.46191c4.99023 -6.69336 14.998 -34.1914 84.1094 -224.065
c42.9502 -118.004 94.5244 -259.69 141.718 -386.145c-0.227539 191.284 -0.227539 354.138 -0.227539 603.258c0 8.5127 6.90137 15.4141 15.4141 15.4141s15.4141 -6.90137 15.4141 -15.4141z" />
    <glyph glyph-name="Ograve" unicode="&#xd2;" 
d="M88.3887 791.55c-5.17871 0 -10.2383 2.61328 -13.1553 7.35254c-4.45117 7.25195 -2.18164 16.7432 5.07422 21.1973c47.4707 29.1357 97.5039 51.1309 148.716 65.377c8.22363 2.28906 16.7012 -2.51953 18.9824 -10.7158
c2.28516 -8.2041 -2.5166 -16.7012 -10.7168 -18.9824c-48.4453 -13.4756 -95.835 -34.3184 -140.854 -61.9512c-2.5127 -1.54102 -5.29883 -2.27734 -8.0459 -2.27734zM272.055 648.646c43.0732 -69.0537 69.0879 -191.592 67.8936 -319.795
c-1.2832 -137.479 -32.585 -248.565 -85.8857 -304.768c-23.8447 -25.1475 -54.8027 -39.4902 -85.1211 -39.4902c-0.423828 0 -0.84375 0.00390625 -1.26367 0.0078125c-26.3037 0.34668 -49.8486 11.248 -68.0908 31.5322
c-90.2705 100.366 -105.538 365.859 -58.8809 536.188c23.9756 87.5381 61.4619 141.578 108.393 156.279c32.6621 10.2305 80.4873 8.12305 122.956 -59.9551zM231.694 45.293c104.17 109.846 97.2432 453.912 14.2061 587.04
c-25.7256 41.2354 -55.1924 57 -87.584 46.8535c-35.9023 -11.2441 -67.1113 -59.1924 -87.8809 -135.009c-43.6514 -159.351 -30.415 -415.72 52.0713 -507.432c12.3389 -13.7178 28.0996 -21.0898 45.5752 -21.3213c22.0918 -0.323242 45.332 10.5938 63.6123 29.8682z
" />
    <glyph glyph-name="Oslash" unicode="&#xd8;" 
d="M272.05 648.645c43.0771 -69.0537 69.0918 -191.591 67.9014 -319.791c-1.2832 -137.479 -32.585 -248.565 -85.8857 -304.768c-23.8447 -25.1475 -54.8027 -39.4902 -85.1211 -39.4902c-0.423828 0 -0.84375 0.00390625 -1.26367 0.0078125
c-12.7549 0.166016 -24.8467 2.83691 -36.0137 7.83496c-13.541 -88.918 -26.0029 -178.036 -37.2471 -267.243c-0.982422 -7.78809 -7.62207 -13.4873 -15.2754 -13.4873c-0.643555 0 -1.29492 0.0419922 -1.94629 0.123047
c-8.44629 1.06738 -14.4307 8.77832 -13.3672 17.2207c11.9111 94.4824 25.1436 188.872 39.6211 283.022c-1.31055 1.31055 -2.60547 2.65918 -3.86523 4.06152c-90.2705 100.366 -105.538 365.859 -58.8809 536.188c23.9756 87.5381 61.4619 141.578 108.393 156.279
c22.5391 7.05957 52.3105 8.23145 82.5557 -14.0996c14.292 64.1826 29.1162 128.096 44.5684 191.631c2.01172 8.26953 10.3389 13.3447 18.6201 11.333c8.26953 -2.01172 13.3447 -10.3506 11.333 -18.6201c-16.9014 -69.5039 -33.1055 -139.436 -48.6191 -209.718
c4.87891 -6.06152 9.71875 -12.8359 14.4932 -20.4854zM109.844 52.9023c32.2188 204.217 70.3711 407.188 114.227 607.357c-20.1611 19.8994 -42.1797 26.3115 -65.7588 18.9248c-35.9023 -11.2441 -67.1113 -59.1924 -87.8809 -135.009
c-41.3086 -150.808 -31.6553 -388.479 39.4131 -491.273zM231.693 45.291c103.025 108.64 97.373 446.355 16.9023 582.547c-43.0234 -198.825 -80.4707 -400.337 -111.984 -603.043c9.45215 -5.98828 20.0879 -9.22168 31.4707 -9.37207
c22.0723 -0.323242 45.335 10.5938 63.6113 29.8682z" />
    <glyph glyph-name="Ugrave" unicode="&#xd9;" horiz-adv-x="348" 
d="M100.17 791.55c-5.17871 0 -10.2383 2.61328 -13.1553 7.35254c-4.45117 7.25195 -2.18164 16.7432 5.07422 21.1973c47.4707 29.1357 97.5039 51.1309 148.716 65.377c8.22363 2.28906 16.7051 -2.51953 18.9824 -10.7158
c2.28516 -8.2041 -2.5166 -16.7012 -10.7168 -18.9824c-48.4453 -13.4756 -95.835 -34.3184 -140.854 -61.9512c-2.5127 -1.54102 -5.29883 -2.27734 -8.0459 -2.27734zM324.721 658.338c4.66309 -204.147 12.4619 -545.825 -84.0049 -638.743
c-17.7529 -17.0977 -38.334 -25.7451 -61.25 -25.7451c-1.86133 0 -3.73438 0.0537109 -5.62598 0.168945c-25.1592 1.51465 -47.6514 14.3926 -66.8496 38.2725c-45.9795 57.1924 -74.5947 179.262 -85.0488 362.819c-7.67578 134.809 -2.43555 267.132 1.40234 291.497
c1.3252 8.41211 9.22461 14.1494 17.6211 12.8281c8.41211 -1.3252 14.1533 -9.21289 12.8281 -17.6211c-7.83008 -49.7324 -21.0859 -507.933 77.2227 -630.206c13.7178 -17.0596 28.3301 -25.8301 44.6807 -26.8164c16.4502 -0.994141 30.7275 4.57031 43.6367 17.0049
c86.7217 83.5381 78.8184 429.812 74.5684 615.84l-0.635742 28.3691c-0.180664 8.50879 6.57031 15.5566 15.0791 15.7412c8.52344 0.227539 15.5596 -6.57031 15.7402 -15.0791z" />
    <glyph glyph-name="germandbls" unicode="&#xdf;" horiz-adv-x="324" 
d="M246.513 468.74c45.8018 -46.915 66.7568 -123.535 64.0557 -234.24c-1.93848 -79.4424 -11.9492 -142.9 -54.499 -194.405c-36.0527 -43.6367 -91.5039 -65.6318 -165.197 -65.6318c-14.377 0 -29.4473 0.835938 -45.208 2.51172
c-6.0459 0.643555 -10.8477 4.7207 -12.8018 10.0693c-1.78809 2.52051 -2.86328 5.57617 -2.86328 8.90137c0 285.177 0 457.306 0.338867 688.442c0.0117188 8.50488 6.90918 15.3906 15.4141 15.3906h0.0234375c0.138672 0 0.269531 -0.0380859 0.412109 -0.0419922
c0.0693359 0.00390625 0.134766 0.0273438 0.204102 0.03125c3.19824 0.134766 7.42188 0.423828 12.4697 0.762695c47.3584 3.19043 145.902 9.82617 192.641 -35.0312c16.8818 -16.2002 25.1055 -37.1855 24.4463 -62.375
c-1.3877 -52.7959 -45.2549 -79.623 -94.2393 -93.6572c23.001 -8.04199 45.2627 -20.7119 64.8037 -40.7266zM61.1436 669.791c-0.0693359 -50.7578 -0.126953 -98.8135 -0.168945 -145.999c1.60352 0.0927734 3.2793 0.189453 5.09766 0.293945
c48.4688 2.75488 177.228 10.0645 179.058 79.8467c0.431641 16.377 -4.46582 29.2432 -14.9746 39.3271c-36.8389 35.3594 -132.67 28.9785 -169.012 26.5312zM279.749 235.259c2.45508 100.54 -16.1504 171.847 -55.3008 211.945
c-44.2725 45.3467 -107.708 45.4199 -158.589 45.3008h-3.02832c-0.647461 0 -1.26367 0.111328 -1.8877 0.188477c-0.115234 -146.958 -0.119141 -289.766 -0.119141 -486.109c79.4346 -6.28906 137.098 11.5332 171.478 53.1504
c36.916 44.6807 45.667 102.482 47.4473 175.524z" />
    <glyph glyph-name="agrave" unicode="&#xe0;" horiz-adv-x="367" 
d="M125.753 791.55c-5.18262 0 -10.2422 2.61328 -13.1553 7.35254c-4.45117 7.25195 -2.18164 16.7432 5.07422 21.1973c47.4707 29.1357 97.5039 51.1309 148.716 65.377c8.22363 2.28906 16.7051 -2.51953 18.9824 -10.7158
c2.28516 -8.2041 -2.5166 -16.7012 -10.7168 -18.9824c-48.4453 -13.4756 -95.835 -34.3184 -140.854 -61.9512c-2.5127 -1.54102 -5.29883 -2.27734 -8.0459 -2.27734zM357.702 1.58203c0.871094 -8.46973 -5.28906 -16.043 -13.7549 -16.9141
c-0.535156 -0.0537109 -1.07031 -0.0810547 -1.59863 -0.0810547c-7.80273 0 -14.4961 5.90332 -15.3135 13.834c-2.64355 25.6602 -5.29883 61.9326 -8.37793 103.932c-7.83008 106.905 -18.5576 253.316 -39.5244 372.218
c-1.125 6.38867 -2.26172 12.5469 -3.40234 18.5312c-22.3848 -0.554688 -39.8174 -1.05176 -54.4297 -1.47168c-30.5928 -0.875 -49.2432 -1.40723 -76.5371 -1.40723c-12.416 0 -26.6543 0.111328 -44.5762 0.350586
c-2.60059 -11.3369 -5.18262 -23.3438 -7.7373 -36.1182c-24.6465 -123.225 -38.0488 -270.379 -46.916 -367.759c-3.51855 -38.623 -6.29688 -69.1309 -8.84375 -88.1094c-1.13281 -8.43555 -8.87402 -14.374 -17.3281 -13.2256
c-8.43555 1.13281 -14.3584 8.89355 -13.2256 17.3291c2.45898 18.3232 5.21387 48.542 8.69727 86.8027c26.5811 291.894 64.3604 603.952 176.818 611.586c104.764 7.00977 134.428 -278.078 157.753 -596.476c3.05566 -41.752 5.69922 -77.8125 8.29688 -103.021z
M220.414 522.445c13.4258 0.381836 29.2168 0.835938 49.0195 1.33691c-29.4902 133.757 -62.0977 147.479 -75.6963 146.542c-19.0166 -1.29102 -53.2773 -23.918 -86.0273 -149.02c51.2812 -0.616211 70.5596 -0.0654297 112.704 1.14062z" />
    <glyph glyph-name="ae" unicode="&#xe6;" horiz-adv-x="632" 
d="M610.711 225.469c8.4541 -1.00977 14.4902 -8.67578 13.4844 -17.1299c-13.7139 -115.198 -36.4873 -228.143 -148.672 -233.873c-1.4873 -0.0771484 -2.97461 -0.115234 -4.44629 -0.115234c-53.6094 0 -94.6484 49.8438 -119.873 105.73
c2.31934 -31.332 4.42285 -58.3828 6.49609 -78.5059c0.871094 -8.46973 -5.28711 -16.0381 -13.7529 -16.9131c-0.535156 -0.0537109 -1.07031 -0.0810547 -1.59863 -0.0810547c-7.80273 0 -14.4961 5.90332 -15.3135 13.834
c-2.64355 25.6602 -5.29883 61.9365 -8.37793 103.935c-7.83008 106.901 -18.5576 253.316 -39.5244 372.214c-1.12891 6.38867 -2.26562 12.5469 -3.40625 18.5312c-22.3848 -0.554688 -39.8174 -1.05176 -54.4297 -1.47168
c-30.5889 -0.875 -49.2432 -1.40723 -76.5371 -1.40723c-12.4121 0 -26.6543 0.111328 -44.5762 0.350586c-2.60059 -11.3369 -5.18262 -23.3477 -7.7373 -36.126c-24.6426 -123.225 -38.0449 -270.383 -46.9121 -367.763
c-3.51465 -38.6191 -6.29297 -69.123 -8.83984 -88.0977c-1.13281 -8.43555 -8.86621 -14.374 -17.3281 -13.2256c-8.43555 1.13281 -14.3584 8.89355 -13.2256 17.3291c2.45898 18.3232 5.20996 48.5381 8.69336 86.791c26.5811 291.901 64.3564 603.964 176.814 611.602
c1.2793 0.0849609 2.55469 0.130859 3.81445 0.130859c65.2578 0 100.651 -116.085 123.729 -282.341c8.92871 74.4521 27.1709 141.328 54.2139 197.438c22.8203 47.3428 48.1182 75.7578 77.3428 86.8633c36.8545 14.0068 76.9531 4.17285 104.644 -25.6641
c29.7793 -32.0879 51.9824 -94.9023 59.3887 -168.036c0.439453 -4.33105 -0.974609 -8.64258 -3.8877 -11.876s-7.05957 -5.08301 -11.4141 -5.09082c-1.9541 -0.00390625 -179.709 -0.350586 -236.323 -0.0849609c-14.6162 -62.8994 -21.1592 -133.868 -19.1475 -210.193
c1.55273 -58.957 7.67188 -105.232 19.251 -145.632c14.377 -50.1445 53.9941 -134.176 110.689 -131.336c70.5869 3.60645 101.893 57.7051 119.634 206.729c1.00977 8.4541 8.68555 14.4883 17.1279 13.4863zM401.183 602.926
c-11.7842 -24.4463 -21.8135 -51.1191 -30.0371 -79.708c51.0234 -0.162109 166.992 0.0078125 210.956 0.0849609c-9.42578 68.8916 -31.1553 113.688 -49.3008 133.236c-18.9746 20.4463 -46.2109 27.2744 -71.0967 17.8184
c-21.1973 -8.05371 -41.5625 -32.0879 -60.5215 -71.4316zM220.419 522.448c13.4219 0.381836 29.2178 0.835938 49.0166 1.33691c-29.498 133.757 -62.1328 147.479 -75.6973 146.542c-19.0127 -1.29102 -53.2773 -23.918 -86.0273 -149.02
c51.2812 -0.616211 70.5596 -0.0654297 112.708 1.14062z" />
    <glyph glyph-name="ccedilla" unicode="&#xe7;" horiz-adv-x="334" 
d="M312.885 225.469c8.4502 -1.00977 14.4873 -8.67676 13.4814 -17.1309c-11.9922 -100.725 -30.9121 -199.727 -110.474 -226.839c9.32129 -51.4971 19.082 -102.829 29.2549 -153.667c1.67285 -8.35059 -3.74121 -16.4697 -12.0879 -18.1426
c-1.02539 -0.204102 -2.04297 -0.304688 -3.04492 -0.304688c-7.19434 0 -13.6299 5.06738 -15.0977 12.3926c-10.1533 50.7344 -19.8945 101.962 -29.2002 153.352c-2.63965 -0.265625 -5.2832 -0.523438 -8.02637 -0.662109
c-1.4873 -0.0771484 -2.97461 -0.115234 -4.44629 -0.115234c-68.8105 0 -116.921 82.1318 -137.448 153.744c-12.3154 42.9697 -18.8086 91.6885 -20.4307 153.316c-3.43359 130.238 17.3906 246.045 60.2139 334.897c22.8203 47.3428 48.1182 75.7578 77.3389 86.8633
c36.8545 14.0068 76.9531 4.17285 104.644 -25.6641c27.0244 -29.1201 47.8525 -85.3574 58.6465 -158.346c1.24512 -8.41992 -4.56934 -16.2578 -12.9932 -17.5029c-8.4043 -1.24121 -16.2578 4.56934 -17.5029 12.9932c-9.74512 65.9209 -28.2451 117.634 -50.7451 141.88
c-18.9746 20.4463 -46.2188 27.2744 -71.0967 17.8184c-21.1943 -8.05371 -41.5557 -32.0879 -60.5186 -71.4316c-40.7041 -84.4482 -60.4727 -195.346 -57.1699 -320.698c1.55273 -58.957 7.66797 -105.232 19.2471 -145.632
c14.373 -50.1445 54.0137 -134.177 110.689 -131.337c1.40625 0.0732422 2.77051 0.200195 4.14648 0.311523c-8.67383 48.9004 -16.959 97.8965 -24.751 146.731c-1.34082 8.4082 4.38574 16.3115 12.7939 17.6523c8.39648 1.3252 16.3076 -4.38574 17.6523 -12.7939
c7.6875 -48.2021 15.8604 -96.5547 24.415 -144.822c47.085 18.9707 70.8145 77.2998 85.3809 199.65c1.00977 8.4541 8.68945 14.4883 17.1289 13.4863z" />
    <glyph glyph-name="egrave" unicode="&#xe8;" horiz-adv-x="334" 
d="M98.3604 791.55c-5.18262 0 -10.2422 2.61328 -13.1553 7.35254c-4.45117 7.25195 -2.18164 16.7432 5.07422 21.1973c47.4707 29.1357 97.5039 51.1309 148.716 65.377c8.22363 2.28906 16.7051 -2.51953 18.9824 -10.7158
c2.28516 -8.2041 -2.5166 -16.7012 -10.7168 -18.9824c-48.4453 -13.4756 -95.835 -34.3184 -140.854 -61.9512c-2.5127 -1.54102 -5.29883 -2.27734 -8.0459 -2.27734zM312.885 225.471c8.4502 -1.00977 14.4883 -8.67773 13.4785 -17.1357
c-13.7148 -115.198 -36.4883 -228.143 -148.673 -233.873c-1.4873 -0.0771484 -2.97461 -0.115234 -4.44629 -0.115234c-68.8105 0 -116.921 82.1318 -137.448 153.744c-12.3154 42.9697 -18.8086 91.6846 -20.4307 153.316
c-3.43359 130.238 17.3906 246.042 60.2139 334.898c22.8203 47.3428 48.1182 75.7578 77.3428 86.8633c36.8506 14.0068 76.9531 4.17285 104.644 -25.6641c29.7793 -32.0879 51.9824 -94.9023 59.3887 -168.036c0.439453 -4.33105 -0.974609 -8.64258 -3.8877 -11.876
s-7.05957 -5.08301 -11.4141 -5.09082c-1.9541 -0.00390625 -179.705 -0.350586 -236.323 -0.0849609c-14.6162 -62.8994 -21.1592 -133.868 -19.1475 -210.193c1.55273 -58.957 7.67188 -105.232 19.251 -145.632c14.373 -50.1445 53.9629 -134.176 110.689 -131.336
c70.5869 3.60645 101.893 57.7051 119.634 206.729c1.00977 8.4541 8.66309 14.4883 17.1289 13.4863zM103.354 602.926c-11.7842 -24.4463 -21.8174 -51.1191 -30.0371 -79.708c51.0195 -0.162109 166.992 0.0078125 210.956 0.0849609
c-9.42578 68.8916 -31.1553 113.688 -49.3008 133.236c-18.9746 20.4463 -46.2148 27.2744 -71.0967 17.8184c-21.1973 -8.05371 -41.5625 -32.0879 -60.5215 -71.4316z" />
    <glyph glyph-name="igrave" unicode="&#xec;" horiz-adv-x="92" 
d="M133.051 874.761c2.28125 -8.2002 -2.52051 -16.7002 -10.7207 -18.9814c-48.4453 -13.4756 -95.835 -34.3184 -140.854 -61.9512c-2.5127 -1.54102 -5.29883 -2.27734 -8.0459 -2.27734c-5.18262 0 -10.2422 2.6123 -13.1514 7.35156
c-4.45117 7.25195 -2.18164 16.7432 5.07422 21.1973c47.4707 29.1357 97.5039 51.1309 148.716 65.377c8.22363 2.28906 16.7051 -2.51953 18.9824 -10.7158zM45.8096 696.583c8.5127 0 15.4141 -6.90137 15.4141 -15.4141c0 -285.157 0 -457.278 0.338867 -688.396
c0.015625 -8.5127 -6.87793 -15.4258 -15.3906 -15.4375h-0.0234375c-8.50488 0 -15.4023 6.88184 -15.4141 15.3906c-0.338867 231.141 -0.338867 403.27 -0.338867 688.442c0 8.5127 6.90137 15.4141 15.4141 15.4141z" />
    </font>
</defs>
</svg>
